<?xml version="1.0" standalone="no"?>
<!DOCTYPE svg PUBLIC "-//W3C//DTD SVG 1.1//EN" "http://www.w3.org/Graphics/SVG/1.1/DTD/svg11.dtd" >
<svg xmlns="http://www.w3.org/2000/svg">
<metadata>Generated by IcoMoon</metadata>
<defs>
<font id="icofont-lenkerhof" horiz-adv-x="1024">
<font-face units-per-em="1024" ascent="960" descent="-64" />
<missing-glyph horiz-adv-x="1024" />
<glyph unicode="&#x20;" horiz-adv-x="512" d="" />
<glyph unicode="&#xe900;" glyph-name="aircondition" d="M910.222 470.756h-92.16l53.476 53.476c9.102 9.102 9.102 23.893 0 31.858-9.102 9.102-23.893 9.102-31.858 0l-85.333-85.333h-187.733l131.982 131.982 120.604-1.138c0 0 0 0 0 0 12.516 0 22.756 10.24 22.756 22.756s-10.24 22.756-22.756 22.756l-75.093 1.138 64.853 64.853c9.102 9.102 9.102 22.756 0 31.858s-22.756 9.102-31.858 0l-64.853-64.853-1.138 75.093c0 12.516-10.24 22.756-22.756 22.756 0 0 0 0 0 0-12.516 0-22.756-10.24-22.756-22.756l1.138-120.604-131.982-131.982v187.733l85.333 84.196c9.102 9.102 9.102 22.756 0 31.858s-22.756 9.102-31.858 0l-53.476-52.338v92.16c0 12.516-10.24 22.756-22.756 22.756s-22.756-10.24-22.756-22.756v-92.16l-53.476 53.476c-9.102 9.102-23.893 9.102-31.858 0-9.102-9.102-9.102-23.893 0-31.858l85.333-84.196v-186.596l-131.982 130.844 1.138 119.467c0 12.516-10.24 22.756-22.756 22.756 0 0 0 0 0 0-12.516 0-22.756-10.24-22.756-22.756l-1.138-75.093-64.853 64.853c-9.102 9.102-22.756 9.102-31.858 0s-9.102-22.756 0-31.858l64.853-64.853-75.093-1.138c-12.516 0-22.756-10.24-22.756-22.756s10.24-22.756 22.756-22.756c0 0 0 0 0 0l120.604 1.138 131.982-131.982h-187.733l-84.196 85.333c-9.102 9.102-22.756 9.102-31.858 0s-9.102-22.756 0-31.858l53.476-53.476h-93.298c-12.516 0-22.756-10.24-22.756-22.756s10.24-22.756 22.756-22.756h92.16l-53.476-53.476c-9.102-9.102-9.102-23.893 0-31.858 4.551-4.551 10.24-6.827 15.929-6.827s11.378 2.276 15.929 6.827l84.196 85.333h186.596l-130.844-131.982-119.467 1.138c0 0 0 0 0 0-12.516 0-22.756-10.24-22.756-22.756s10.24-22.756 22.756-22.756l75.093-1.138-64.853-64.853c-9.102-9.102-9.102-22.756 0-31.858 4.551-4.551 10.24-6.827 15.929-6.827s11.378 2.276 15.929 6.827l64.853 64.853 1.138-75.093c0-12.516 10.24-22.756 22.756-22.756 0 0 0 0 0 0 12.516 0 22.756 10.24 22.756 22.756l-1.138 120.604 131.982 131.982v-186.596l-85.333-84.196c-9.102-9.102-9.102-22.756 0-31.858 4.551-4.551 10.24-6.827 15.929-6.827s11.378 2.276 15.929 6.827l53.476 53.476v-94.436c0-12.516 10.24-22.756 22.756-22.756s22.756 10.24 22.756 22.756v92.16l53.476-53.476c4.551-4.551 10.24-6.827 15.929-6.827s11.378 2.276 15.929 6.827c9.102 9.102 9.102 23.893 0 31.858l-85.333 85.333v187.733l131.982-131.982-1.138-120.604c0-12.516 10.24-22.756 22.756-22.756 0 0 0 0 0 0 12.516 0 22.756 10.24 22.756 22.756l1.138 75.093 64.853-64.853c4.551-4.551 10.24-6.827 15.929-6.827s11.378 2.276 15.929 6.827c9.102 9.102 9.102 22.756 0 31.858l-64.853 64.853 75.093 1.138c12.516 0 22.756 10.24 22.756 22.756s-10.24 22.756-22.756 22.756c0 0 0 0 0 0l-120.604-1.138-131.982 131.982h186.596l84.196-85.333c4.551-4.551 10.24-6.827 15.929-6.827s11.378 2.276 15.929 6.827c9.102 9.102 9.102 22.756 0 31.858l-51.2 53.476h92.16c12.516 0 22.756 10.24 22.756 22.756s-10.24 22.756-22.756 22.756z" />
<glyph unicode="&#xe901;" glyph-name="arrow-down" horiz-adv-x="2253" d="M1162.311 197.511l532.951 480.439-19.648 34.047-549.115-478.347-530.915 478.347-37.846-34.047 532.951-480.439c10.827-9.652 25.102-14.47 39.55-13.348 11.869 0.742 23.154 5.431 32.059 13.348z" />
<glyph unicode="&#xe902;" glyph-name="arrow-form" horiz-adv-x="2048" d="M2058.396 960l-1034.396-1034.396-1034.396 1034.396z" />
<glyph unicode="&#xe903;" glyph-name="arrow-left" horiz-adv-x="489" d="M24.564 416.434l423.531-469.819 30.018 17.315-421.685 484.070 421.685 468.020-30.018 33.365-423.531-469.819c-8.507-9.543-12.754-22.133-11.765-34.87 0.652-10.468 4.794-20.416 11.765-28.262z" />
<glyph unicode="&#xe904;" glyph-name="arrow-right" horiz-adv-x="489" d="M466.206 479.566l-423.531 469.819-30.018-17.315 421.685-484.070-421.685-468.020 30.018-33.365 423.531 469.819c8.507 9.543 12.754 22.133 11.765 34.87-0.652 10.468-4.794 20.416-11.765 28.262z" />
<glyph unicode="&#xe905;" glyph-name="arrow-up" horiz-adv-x="2253" d="M1090.689 698.489l-532.951-480.439 19.648-34.047 549.115 478.347 530.915-478.347 37.846 34.047-532.951 480.439c-10.827 9.652-25.102 14.47-39.55 13.348-11.869-0.742-23.154-5.431-32.059-13.348z" />
<glyph unicode="&#xe906;" glyph-name="book" horiz-adv-x="1342" d="M1311.364 960h-457.078c-68.888 0-133.22-34.2-172.036-91.495l-15.767-23.247-15.767 23.247c-38.831 57.295-103.149 91.495-172.052 91.495h-457.062c-11.913 0-21.602-9.689-21.602-21.602v-842.861c0-11.913 9.689-21.602 21.602-21.602h457.062c62.946 0 119.434-35.19 147.403-91.83 3.61-7.297 11.212-12.035 19.362-12.035h18.403c0.731 0.091 1.432 0.137 2.163 0.168l1.569 0.030 1.569-0.198h18.403c8.287 0 15.706 4.616 19.362 12.035 27.985 56.655 84.472 91.83 147.403 91.83h457.062c11.913 0 21.602 9.689 21.602 21.602v842.861c0 11.913-9.689 21.602-21.602 21.602zM643.175 42.615l-31.29 26.309c-37.003 31.108-84.32 48.23-133.205 48.23h-435.476v799.642h435.461c90.703 0 164.496-73.808 164.496-164.511v-709.671h0.015zM1289.762 117.139h-435.476c-48.901 0-96.202-17.138-133.19-48.246l-31.306-26.324v709.717c0 90.703 73.793 164.511 164.496 164.511h435.461v-799.657h0.015zM192.633 722.412h311.381v-31.549h-311.381v31.549zM192.633 334.649h311.381v-31.549h-311.381v31.549zM192.633 528.515h311.381v-31.549h-311.381v31.549zM835.823 722.412v-31.549h311.381v31.549h-311.381zM835.823 334.649v-31.549h311.381v31.549h-311.381zM835.823 528.515v-31.549h311.381v31.549h-311.381z" />
<glyph unicode="&#xe907;" glyph-name="breakfast" d="M501.756 73.846l161.4 127.278c-48.087 135.221-177.391 176.176-185.289 179.335-23.966 6.536-50.111 10.894-76.255 10.894s-52.289-4.357-76.255-10.894c-22.372-5.966-43.724-14.655-63.692-25.264l25.033-200.164c37.618-4.798 76.954-12.61 114.914-27.304 30.924-10.308 65.657-30.522 100.145-53.882zM538.854 47.609c11.133-8.158 22.081-16.392 32.698-24.46 21.787-15.251 41.396-30.502 61.004-41.396 4.357-2.179 6.536-4.357 10.894-4.357 10.894 0 23.966 10.894 28.323 26.145 11.69 58.884 11.507 109.077 3.621 151.743l-136.54-107.674zM242.208 159.621l-21.268 170.060c-47.416-34.511-83.163-78.566-100.384-116.983-8.715-13.072-8.715-26.145-4.357-34.86 2.179-4.357 8.715-8.715 15.251-8.715 19.609-4.357 43.574-4.357 71.898-6.536 12.425-0.92 25.433-1.841 38.861-2.966zM299.522 416.689c-39.424 80.541-59.136 178.246-59.136 281.865v30.502h588.255v-30.502c0-4.875-0.045-9.735-0.134-14.578 9.364 0.131 18.911-0.942 28.457-2.852 52.289-15.251 95.864-71.898 69.719-165.583-19.609-69.719-78.434-141.617-135.081-141.617-6.536 0-10.894 0-17.43 2.179-6.738 0.963-13.475 4.051-19.837 8.514-24.060-42.711-53.373-78.604-87.058-105.439 42.982-65.368 69.762-157.961 43.712-286.531-2.179-30.502-32.681-56.647-65.362-56.647-13.072 0-23.966 4.357-34.86 10.894-19.609 10.894-41.396 26.145-63.183 41.396-52.289 39.217-113.294 82.791-161.226 98.043-63.183 23.966-128.545 28.323-187.37 30.502-28.323 2.179-54.468 2.179-76.255 6.536-19.609 2.179-37.038 13.072-45.753 30.502-10.894 21.787-10.894 47.932 0 74.077 29.563 67.573 112.339 155.612 222.54 188.74zM343.562 426.706c47.673 7.673 95.346 5.33 143.020-7.030 2.354-1.177 87.371-28.425 154.4-105.79 86.976 68.789 141.939 210.651 144.085 369.415h-501.106c2.153-94.714 21.319-183.048 59.602-256.596zM826.589 641.827c-5.872-80.467-24.175-155.161-52.685-218.426 3.629-3.669 7.424-5.903 8.984-5.903 30.502-8.715 82.791 43.574 102.4 111.115 15.251 56.647 0 102.4-39.217 111.115-5.020 1.255-12.207 2.51-19.482 2.099zM593.339 881.566h43.574v-117.651h-43.574v117.651zM512.726 960h43.574v-196.085h-43.574v196.085zM432.113 881.566h43.574v-117.651h-43.574v117.651z" />
<glyph unicode="&#xe908;" glyph-name="calendar" d="M134.619-64h717.969c74.348 0 134.619 60.126 134.619 134.295v649.093c0 74.169-60.271 134.295-134.619 134.295h-89.746v61.552c0 24.723-20.090 44.765-44.873 44.765s-44.873-20.042-44.873-44.765v-61.552h-358.984v61.552c0 24.723-20.090 44.765-44.873 44.765s-44.873-20.042-44.873-44.765v-61.552h-89.746c-74.348 0-134.619-60.126-134.619-134.295v-649.093c0-74.169 60.271-134.295 134.619-134.295zM853.166 21.035h-732.056c-25.269 0-45.754 21.267-45.754 47.501v391.882h823.564v-391.882c0-26.234-20.485-47.501-45.754-47.501zM121.109 775.98h91.507v-51.473c0-25.269 20.485-45.753 45.754-45.753s45.754 20.485 45.754 45.753v51.473h366.028v-51.473c0-25.269 20.485-45.753 45.754-45.753s45.754 20.485 45.754 45.753v51.473h91.507c25.269 0 45.754-20.485 45.754-45.754v-194.452h-823.564v194.452c0 25.269 20.485 45.754 45.754 45.754z" />
<glyph unicode="&#xe909;" glyph-name="close" d="M31.909 959.634c-13.73-1.336-25.42-10.553-29.925-23.591s-0.995-27.506 8.982-37.032l451.363-451.363-451.363-450.812c-9.251-8.798-13.027-21.909-9.871-34.28s12.749-22.071 25.085-25.363c12.335-3.292 25.487 0.338 34.387 9.492l451.363 451.363 451.363-451.363c8.9-9.154 22.051-12.784 34.387-9.492s21.929 12.992 25.085 25.363c3.156 12.371-0.62 25.481-9.871 34.28l-451.363 450.812 451.363 451.363c11.226 10.543 14.314 27.15 7.629 41.024s-21.597 21.808-36.838 19.599c-7.773-1.123-14.949-4.808-20.391-10.471l-451.363-451.363-451.363 451.363c-7.471 7.655-18.012 11.506-28.658 10.471z" />
<glyph unicode="&#xe90a;" glyph-name="code" d="M114.278 955.392h55.603v-456.192h-91.238v348.058l-74.957-49.459v85.094l110.592 72.499zM579.072 323.072v-79.872h-260.198v51.302l103.834 155.136c16.794 24.986 28.928 46.643 36.403 64.973s11.213 35.482 11.213 51.456c0 20.89-6.042 36.25-18.125 46.080s-30.925 14.746-56.525 14.746c-29.901 0-57.446-5.222-82.637-15.667v76.8c11.878 4.71 26.829 8.499 44.851 11.366s35.123 4.301 51.302 4.301c48.743 0 86.169-10.342 112.282-31.027s39.168-53.555 39.168-98.611c0-22.733-4.147-45.977-12.442-69.734s-22.477-50.073-42.547-78.95l-70.042-102.298h143.462zM904.192 222.515c29.287-6.554 51.405-19.354 66.355-38.4s22.426-43.213 22.426-72.499c0-27.648-6.656-51.251-19.968-70.81s-32.563-34.355-57.754-44.39c-25.191-10.035-55.398-15.053-90.624-15.053-34.611 0-67.584 4.608-98.918 13.824v71.885c14.746-4.301 30.822-7.629 48.23-9.984s33.587-3.533 48.538-3.533c28.058 0 48.947 5.222 62.669 15.667s20.582 26.521 20.582 48.23c0 21.504-7.168 37.734-21.504 48.691s-37.069 16.435-68.198 16.435h-49.152v74.035h40.55c28.877 0 50.278 5.427 64.205 16.282s20.89 26.317 20.89 46.387c0 19.046-5.99 33.178-17.971 42.394s-30.771 13.824-56.371 13.824c-14.95 0-30.003-1.331-45.158-3.994s-29.184-6.451-42.086-11.366v71.885c12.698 4.71 28.109 8.499 46.234 11.366s35.789 4.301 52.992 4.301c48.947 0 86.118-10.137 111.514-30.413s38.093-49.664 38.093-88.166c0-26.624-6.605-49.306-19.814-68.045s-31.795-31.59-55.757-38.554z" />
<glyph unicode="&#xe90b;" glyph-name="coupon" horiz-adv-x="1453" d="M1380.748 960h-1308.077c-40.173 0-72.671-31.893-72.671-71.317v-855.809c0-39.424 32.498-71.317 72.671-71.317h1308.077c40.173 0 72.671 31.893 72.671 71.317v855.809c0 39.424-32.498 71.317-72.671 71.317zM488.155 5.848h-443.864v254.309h384.67l-228.914-175.049 18.619-33.798 269.489 208.831v-254.294zM249.541 402.289c-36.652 36.728-115.143 152.083-75.822 196.075 39.685 45.872 140.604-20.366 196.075-75.822 77.823-77.823 77.52-151.204 69.756-189.327-74.533-15.695-141.802 20.942-190.009 69.074zM488.155 424.84c-162.191 266.718-296.411 239.874-341.198 200.27-67.044-59.286 17.442-191.143 102.666-276.443 15.452-15.452 57.734-28.494 73.020-39.533h-278.351v606.574h443.864v-490.868zM1409.082 5.848h-885.372v254.294l256.067-208.831 18.619 33.798-228.914 188.471h839.6v-267.731zM628.65 522.527c55.456 55.456 158.604 118.433 196.075 75.822 42.718-37.744-39.169-159.347-75.822-196.075-48.207-48.132-111.003-82.418-189.994-69.013-7.628 37.774-8.083 111.382 69.741 189.266zM1409.082 309.135h-733.281c15.286 11.055 57.567 37.518 73.020 52.956 85.224 85.299 154.294 208.67 102.666 263.021-24.278 25.559-203.392 53.026-327.776-200.27v490.868h885.372v-606.574z" />
<glyph unicode="&#xe90c;" glyph-name="download" horiz-adv-x="845" d="M468.911 230.949l127.917 127.917c9.089 9.089 23.824 9.089 32.913 0s9.089-23.824 0-32.913l-166.366-166.366c-4.729-4.729-10.987-6.997-17.183-6.805-5.947-0.185-12.070 1.911-17.011 6.852l-166.366 166.366c-9.089 9.089-9.089 23.824 0 32.913s23.824 9.089 32.913 0l126.637-126.637v704.451c0 12.853 10.42 23.273 23.273 23.273s23.273-10.42 23.273-23.273v-705.778zM791.564 308.364h46.545v-349.942h-838.109v349.091h46.545v-302.545h745.018v303.396z" />
<glyph unicode="&#xe90d;" glyph-name="dryer" d="M259.865 841.974h630.584v-268.448l-418.744-133.765c-19.978-29.164-46.042-53.965-76.010-72.451v-208.742c-0.115-25.145-18.715-44.78-42.368-44.78h-75.206c-6.659-85.655-67.169-144.213-151.676-144.213v31.346c67.284 0 114.015 44.665 120.215 112.867h-75.78c-25.030 0-46.961 21.012-46.961 44.78l0.115 209.431c-74.288 46.846-120.1 129.287-120.1 217.353 0 141.343 114.819 256.277 255.931 256.621zM836.742 594.002v199.839h-577.883c-117.16-0.321-212.387-94.458-212.387-210.121 0-74.645 40.718-144.364 106.302-181.847 5.972-3.427 8.687-10.495 7.275-16.814l-0.217-210.602c0-6.104 7.709-12.53 14.876-12.53h172.538c6.732 0 10.315-4.766 10.424 12.53l0.434 210.602c-1.52 6.104 1.194 12.851 7.058 16.171 28.883 16.278 53.748 39.304 72.099 66.613 1.629 2.57 4.018 4.391 6.515 5.89l392.967 120.268zM266.412 437.121c-84.14 0-152.595 68.455-152.595 152.606 0 84.14 68.444 152.595 152.595 152.595s152.595-68.455 152.595-152.595c-0.011-84.151-68.444-152.606-152.595-152.606zM266.403 705.392c-63.769 0-115.656-51.887-115.656-115.656 0-63.78 51.887-115.667 115.656-115.667 63.78 0 115.667 51.887 115.667 115.667-0.011 63.758-51.887 115.656-115.667 115.656zM1006.377 771.199h-65.78c-8.646 0-15.661 7.015-15.661 15.661s7.015 15.661 15.661 15.661h65.78c8.646 0 15.661-7.015 15.661-15.661s-7.015-15.661-15.661-15.661zM1006.377 692.249h-65.78c-8.646 0-15.661 7.015-15.661 15.661s7.015 15.661 15.661 15.661h65.78c8.646 0 15.661-7.004 15.661-15.661 0-8.634-7.015-15.661-15.661-15.661zM1006.377 613.311h-65.78c-8.646 0-15.661 7.004-15.661 15.661s7.015 15.661 15.661 15.661h65.78c8.646 0 15.661-7.004 15.661-15.661 0-8.646-7.015-15.661-15.661-15.661z" />
<glyph unicode="&#xe90e;" glyph-name="facebook" horiz-adv-x="563" d="M344.835-63.011v466.641h156.63l23.452 181.862h-180.082v116.107c0 52.654 14.62 88.532 90.12 88.532l96.298 0.042v162.659c-16.649 2.217-73.812 7.168-140.322 7.168-138.842 0-233.898-84.75-233.898-240.391v-134.117h-157.032v-181.862h157.032v-466.645l187.803 0.004z" />
<glyph unicode="&#xe90f;" glyph-name="holidaycheck" horiz-adv-x="4915" d="M754.036 393.309c91.928 0 131.491 82.618 131.491 157.091 0 80.291-48.872 157.091-131.491 157.091-83.782 1.164-132.655-76.8-132.655-157.091 0-75.636 40.728-157.091 132.655-157.091-91.927 0-132.655 82.618-132.655 157.091 0 80.291 48.873 157.091 132.655 157.091 82.618 0 131.491-77.964 131.491-157.091 0-75.636-40.727-157.091-131.491-157.091zM538.764 550.4c0-119.855 88.436-219.927 215.272-219.927s215.273 100.073 215.273 219.927c0 128-86.109 219.927-215.273 219.927-129.163 1.164-215.272-91.927-215.272-219.927 0 128 86.109 219.927 215.272 219.927s215.273-91.927 215.273-219.927c0-119.855-88.436-219.927-215.273-219.927-128 0-215.272 100.073-215.272 219.927zM4890.764 44.218c0-54.691-44.218-98.909-98.909-98.909s-98.909 44.218-98.909 98.909c0 54.691 44.218 98.909 98.909 98.909s98.909-44.218 98.909-98.909zM4496.291 44.218c0-54.691-44.218-98.909-98.909-98.909s-98.909 44.218-98.909 98.909c0 54.691 44.218 98.909 98.909 98.909s98.909-44.218 98.909-98.909zM4100.655 44.218c0-54.691-44.218-98.909-98.909-98.909s-98.909 44.218-98.909 98.909c0 54.691 44.218 98.909 98.909 98.909s98.909-44.218 98.909-98.909zM3705.018 44.218c0-54.691-44.218-98.909-98.909-98.909s-98.909 44.218-98.909 98.909c0 54.691 44.218 98.909 98.909 98.909s98.909-44.218 98.909-98.909zM3309.382 44.218c0-54.691-44.218-98.909-98.909-98.909s-98.909 44.218-98.909 98.909c0 54.691 44.218 98.909 98.909 98.909s98.909-44.218 98.909-98.909zM2912.582 44.218c0-54.691-44.218-98.909-98.909-98.909s-98.909 44.218-98.909 98.909c0 54.691 44.218 98.909 98.909 98.909s98.909-44.218 98.909-98.909zM538.764 550.4c0-119.855 88.436-219.927 215.272-219.927s215.273 100.073 215.273 219.927c0 128-86.109 219.927-215.273 219.927-129.163 1.164-215.272-91.927-215.272-219.927zM621.382 550.4c0 80.291 48.873 157.091 132.655 157.091 82.618 0 131.491-77.964 131.491-157.091 0-75.636-40.727-157.091-131.491-157.091-91.927 0-132.655 82.618-132.655 157.091zM2406.4 368.873l-139.636 380.509c0 1.164-1.164 2.327-1.164 3.491 0 4.655 3.491 8.145 9.309 8.145h60.509c6.982 0 13.963-4.655 16.291-11.636l110.545-336.291h1.164l111.709 335.127v1.164c2.328 5.818 8.146 10.473 15.128 10.473h54.691c4.655 0 9.309-3.491 9.309-8.145 0-1.164 0-1.164 0-2.327l-144.291-396.8-93.091-268.8c0-1.164-1.164-2.327-1.164-3.491-3.491-3.491-8.145-4.655-12.8-1.164l-46.545 37.236c-6.982 5.818-9.309 12.8-5.818 19.782l70.982 183.855c1.164 4.655-10.472 34.909-15.127 48.873zM2141.091 503.855v37.236c-16.291 0-33.745 1.164-50.036 1.164-41.891 0-146.618-6.982-146.618-80.291 0-44.218 43.055-68.655 79.128-68.655 76.8 0 117.527 47.709 117.527 110.545zM2221.382 357.236c0-9.309-8.145-17.455-17.455-17.455h-36.072c-10.473 0-18.618 6.982-18.618 17.455v37.236h-1.163c-18.618-25.6-59.346-64-131.491-64-90.763 0-154.763 39.564-154.763 131.491 0 105.891 116.363 138.473 196.655 138.473 30.254 0 52.363 0 82.618-1.164 0 72.145-26.764 109.382-104.727 109.382-33.745 0-69.818-9.309-98.909-26.764-2.328-1.164-5.818-2.327-9.309-2.327-9.309 0-16.291 6.982-17.455 16.291l-2.327 30.255c0 3.491 1.163 6.982 4.655 8.145 38.4 22.109 82.618 37.236 134.982 37.236 121.018 0 169.891-59.345 169.891-174.545v-174.545c1.164-30.255 2.328-50.036 3.491-65.164zM1460.364 552.727c-1.164-66.327 33.745-159.418 117.527-159.418 88.436 0 124.509 86.109 124.509 157.091 0 77.964-40.727 158.255-125.673 158.255s-118.691-79.127-116.363-155.927zM1704.727 358.4v41.891h-1.163c-20.945-31.418-68.655-69.818-144.291-69.818-128 0-181.528 112.873-181.528 228.073 0 112.873 59.345 212.945 182.691 212.945 73.309 0 116.364-29.091 140.8-67.491h1.164v238.545c0 9.309 6.982 17.455 16.291 17.455h44.218c9.309 0 17.455-6.982 17.455-17.455v-584.145c0-9.309-6.982-16.291-16.291-17.455h-41.891c-9.309 0-17.455 8.145-17.455 17.455zM443.345 357.236c0-9.309-8.145-17.455-17.455-17.455h-48.872c-9.309 0-16.291 8.145-16.291 17.455v245.527h-278.109v-245.527c0-9.309-6.982-16.291-16.291-17.455h-47.709c-10.473 0-18.618 8.145-18.618 17.455v541.091c0 10.473 8.145 17.455 17.455 17.455h48.872c9.309 0 17.455-8.145 17.455-16.291v-223.418h276.945v224.582c0 9.309 8.146 16.291 17.455 16.291h47.709c10.473 0 18.618-8.145 18.618-17.455v-542.255h-1.164zM1069.382 340.945h-1.163c-9.309 0-17.455 8.145-17.455 17.455v584.145c0 9.309 8.145 17.455 17.455 17.455h44.218c9.309 0 17.455-8.145 17.455-17.455v-601.6h-60.509zM1248.582 340.945h-1.163c-9.309 0-17.455 8.145-17.455 17.455v386.327c0 9.309 8.145 17.455 17.455 17.455h44.218c9.309 0 17.455-8.145 17.455-17.455v-403.782h-60.509zM1312.582 943.709v-70.982c0-9.309-8.145-16.291-17.455-16.291h-70.982v70.982c0 9.309 8.145 17.455 17.455 17.455h70.982v-1.164zM3152.291 363.055c0-8.145-4.655-13.964-10.472-16.291-41.891-13.964-89.6-16.291-121.018-16.291-183.855 0-304.873 117.527-304.873 300.218 0 176.873 129.164 295.564 306.037 295.564 40.727 0 80.291-5.818 117.527-19.782h1.164c5.818-2.327 10.472-8.145 10.472-15.127l-4.654-55.855c0-4.655-4.655-8.145-8.146-8.145-1.163 0-2.327 0-3.491 1.164-33.745 17.455-70.982 25.6-108.218 25.6-133.818 0-222.255-95.418-222.255-224.582 0-134.982 97.745-225.745 218.763-225.745 36.073 0 83.782 8.145 115.2 22.109 1.164 0 2.328 1.164 3.491 1.164 4.655 0 8.145-3.491 8.145-9.309l2.327-54.691zM3622.4 358.4c0-9.309-8.145-17.455-17.455-17.455h-44.218c-9.309 0-17.454 8.145-17.454 17.455v200.145c0 97.745-22.109 145.455-89.6 150.109-88.437 0-129.164-70.982-129.164-173.382v-178.036c0-9.309-6.982-16.291-16.291-17.455h-44.218c-9.309 0-17.455 8.145-17.455 17.455v584.145c0 10.473 8.145 18.618 17.455 18.618h44.218c9.309 0 17.455-8.145 17.455-17.455v-240.873h1.163c27.928 44.218 76.8 69.818 136.145 69.818 109.382 0 158.255-67.491 158.255-180.364v-232.727h1.164zM4454.4 359.564c0-9.309-5.818-15.127-12.8-17.455-29.091-10.473-59.345-11.636-83.782-11.636-128 0-215.273 100.073-215.273 219.927 0 128 86.109 219.927 215.273 219.927 25.6 0 57.018-4.655 80.291-11.636 8.145-2.327 12.8-8.145 12.8-16.291v-1.164l-3.491-39.564c0-4.655-3.491-8.145-9.309-8.145-1.164 0-2.328 0-2.328 0-26.763 9.309-52.363 13.964-74.472 13.964-87.273 0-136.145-77.964-136.145-157.091 0-75.636 40.727-157.091 140.8-157.091 22.109 0 50.036 5.818 72.145 17.455 1.164 1.164 2.327 1.164 4.655 1.164 4.655 0 8.145-3.491 8.145-8.145l3.491-44.218zM4800 340.945c-5.818 0-10.473 2.327-13.964 5.818l-183.855 210.618v-198.982c0-9.309-8.145-17.455-17.455-17.455h-43.054c-9.309 0-17.455 8.145-17.455 17.455v584.145c0 9.309 8.145 17.455 17.455 17.455h43.054c10.473 0 17.455-8.145 17.455-17.455v-351.418l164.073 164.073c3.491 3.491 8.145 5.818 12.8 5.818h77.964c4.655 0 8.145-3.491 8.145-9.309 0-2.327-1.164-4.655-2.328-5.818l-181.527-172.218 207.127-218.764c2.328-1.164 3.491-3.491 3.491-6.982 0-4.655-3.491-8.145-8.145-8.145l-83.782 1.164zM3788.8 591.127h218.764c0 64-38.4 117.527-105.891 117.527-75.637 0-107.055-62.836-112.873-117.527zM4058.764 370.036c0-8.145-4.655-13.964-10.473-16.291-27.927-10.473-61.672-23.273-123.345-23.273-150.109 0-218.764 90.764-218.764 228.073 0 124.509 79.128 212.945 198.982 212.945 137.309 0 185.018-97.745 186.182-229.236 0-4.655-3.491-9.309-8.145-9.309h-293.236c0-83.782 65.163-140.8 139.636-140.8 43.055 0 90.764 18.618 117.527 33.745 1.164 1.164 2.328 1.164 4.655 1.164 4.655 0 9.309-3.491 9.309-8.145v-48.873h-2.327z" />
<glyph unicode="&#xe910;" glyph-name="instagram" d="M511.194 958.387c138.831 0 156.241-0.585 210.764-3.076 54.411-2.485 91.571-11.125 124.086-23.76 33.617-13.063 62.124-30.543 90.542-58.962s45.899-56.929 58.962-90.544c12.64-32.517 21.28-69.677 23.762-124.088 2.489-54.523 3.075-71.929 3.075-210.76 0-138.836-0.585-156.242-3.075-210.765-2.483-54.411-11.123-91.571-23.762-124.088-13.063-33.615-30.543-62.126-58.962-90.544s-56.925-45.898-90.542-58.962c-32.515-12.635-69.674-21.275-124.086-23.76-54.523-2.487-71.933-3.077-210.764-3.077s-156.24 0.589-210.763 3.077c-54.413 2.485-91.573 11.125-124.085 23.76-33.617 13.063-62.126 30.543-90.545 58.962s-45.899 56.929-58.959 90.544c-12.642 32.517-21.282 69.677-23.763 124.088-2.489 54.523-3.077 71.929-3.077 210.765 0 138.832 0.587 156.237 3.077 210.76 2.481 54.411 11.121 91.571 23.763 124.088 13.061 33.615 30.54 62.126 58.959 90.544s56.927 45.898 90.545 58.962c32.513 12.635 69.672 21.275 124.085 23.76 54.523 2.492 71.931 3.076 210.763 3.076zM511.194 866.28c-136.495 0-152.659-0.52-206.566-2.978-49.838-2.274-76.908-10.605-94.921-17.603-23.861-9.274-40.89-20.352-58.778-38.24-17.885-17.89-28.963-34.917-38.237-58.778-7-18.013-15.329-45.083-17.605-94.92-2.456-53.907-2.978-70.071-2.978-206.566 0-136.499 0.522-152.663 2.978-206.566 2.276-49.842 10.605-76.912 17.605-94.925 9.274-23.859 20.352-40.888 38.237-58.778 17.888-17.887 34.917-28.966 58.778-38.238 18.013-7 45.083-15.331 94.921-17.601 53.898-2.463 70.060-2.98 206.566-2.98s152.668 0.518 206.565 2.98c49.84 2.27 76.908 10.601 94.921 17.601 23.863 9.272 40.892 20.35 58.778 38.238 17.892 17.89 28.97 34.919 38.24 58.778 6.998 18.013 15.328 45.083 17.603 94.925 2.458 53.902 2.98 70.067 2.98 206.566 0 136.494-0.522 152.659-2.98 206.566-2.274 49.838-10.605 76.908-17.603 94.92-9.27 23.861-20.348 40.888-38.24 58.778-17.886 17.888-34.915 28.966-58.778 38.24-18.013 6.998-45.081 15.329-94.921 17.603-53.907 2.458-70.071 2.978-206.565 2.978zM511.194 276.797c94.109 0 170.398 76.289 170.398 170.399 0 94.107-76.289 170.396-170.398 170.396-94.108 0-170.399-76.289-170.399-170.396 0-94.109 76.291-170.399 170.399-170.399zM511.194 709.698c144.975 0 262.502-117.529 262.502-262.503 0-144.98-117.527-262.505-262.502-262.505s-262.503 117.525-262.503 262.505c0 144.973 117.527 262.503 262.503 262.503zM845.414 720.070c0-33.877-27.464-61.344-61.344-61.344-33.877 0-61.344 27.466-61.344 61.344 0 33.879 27.467 61.344 61.344 61.344 33.88 0 61.344-27.464 61.344-61.344z" />
<glyph unicode="&#xe911;" glyph-name="interior" d="M677.76 375.333v243.333h-45.627v-66.497h-376.809v66.497h-45.63v-243.33h-6.743c-74.080 0-134.685-57.327-134.685-127.401v-289.18l45.627 0.003v75.398h659.684v-75.401h45.622v289.176c0 70.078-56.493 127.401-130.586 127.401h-10.853zM630.799 474.718v-99.381h-196.138v133.774h196.138v-34.394zM258.32 509.108h149.423v-133.774h-149.423v133.774zM691.395 332.268c44.464 0 80.836-42.289 80.836-84.335v-114.646h-659.676v114.646c0 42.044 36.368 84.335 80.81 84.335h498.030zM112.555 77.234v29.303h659.673v-29.303h-659.673zM509.652 640.135l-31.767-32.59-117.186 114.228 232.184 33.738 103.836 210.395 103.836-210.395 232.184-33.738-168.010-163.769 39.662-231.246-137.429 72.251 21.178 40.283 55.807-29.339-28.118 163.94 119.109 116.103-164.605 23.918-73.614 149.157-73.614-149.157-164.605-23.918 51.151-49.86z" />
<glyph unicode="&#xe912;" glyph-name="mail-small" horiz-adv-x="1570" d="M35.693 960c-19.361-1.831-35.777-19.94-35.692-39.385v-945.231c0.001-20.62 18.763-39.383 39.385-39.385h1457.23c20.622 0.002 39.383 18.765 39.385 39.385v945.231c-0.001 20.62-18.763 39.383-39.385 39.385h-1460.922zM147.693 881.231h1240.615l-620.307-498.462-620.307 498.462zM78.77 833.231l478.154-381.539-478.154-385.845v767.384zM1457.23 833.231v-767.384l-478.154 385.845 478.154 381.539zM620.923 399.383l121.231-99.69c14.356-11.898 37.336-11.898 51.692 0l121.231 99.69 475.692-384.614h-1245.538l475.692 384.614z" />
<glyph unicode="&#xe913;" glyph-name="mail" horiz-adv-x="1502" d="M17.879 960c-9.874-0.001-17.878-8.005-17.879-17.879v-965.486c0.001-9.874 8.005-17.878 17.879-17.879h1466.108c9.874 0.001 17.878 8.005 17.879 17.879v965.486c-0.001 9.874-8.005 17.878-17.879 17.879h-1466.108zM68.724 924.241h1364.419l-682.21-549.232-682.21 549.232zM35.759 904.686l704-566.552c6.532-5.229 15.817-5.229 22.349 0l704 566.552v-910.172h-1430.349v910.172z" />
<glyph unicode="&#xe914;" glyph-name="minibar" d="M382.722 372.355l-15.919 24.772-16.763 193.145c6.121 2.466 10.453 8.431 10.453 15.441 0 8.020-5.665 14.697-13.208 16.296l-2.344 26.949c-0.744 8.609-7.954 15.219-16.596 15.219h-102.999c-8.642 0-15.852-6.61-16.596-15.219l-2.344-26.949c-7.543-1.589-13.208-8.276-13.208-16.296 0-7.010 4.332-12.975 10.453-15.441l-16.774-193.134-15.907-24.772c-22.528-35.092-34.437-75.672-34.437-117.373v-221.405c0-28.716 23.361-52.077 52.077-52.077h176.449c28.716 0 52.077 23.361 52.077 52.077v221.383c0.011 41.702-11.897 82.292-34.414 117.384zM169.87 235.32c27.36 21.706 65.885 34.026 106.965 34.026 41.091 0 79.604-12.319 106.976-34.026v-134.669c-27.372-21.706-65.885-34.026-106.976-34.026-41.080 0-79.604 12.319-106.965 34.026v134.669zM324.935 494.183h-96.178l8.231 94.867h79.704l8.243-94.867zM313.071 630.841l0.733-8.476h-73.916l0.733 8.476h72.45zM199.019 354.348l18.129 28.238c1.455 2.277 2.344 4.866 2.577 7.565l6.154 70.862c0.5-0.044 0.978-0.144 1.489-0.144h98.966c0.511 0 0.989 0.1 1.489 0.144l6.154-70.862c0.233-2.688 1.122-5.288 2.566-7.565l18.129-28.238c15.23-23.728 24.617-50.455 27.827-78.227-30.215 17.074-67.118 26.55-105.654 26.55s-75.427-9.476-105.643-26.55c3.199 27.783 12.586 54.499 27.816 78.227zM365.070 14.826h-176.449c-10.342 0-18.751 8.409-18.751 18.751v26.972c30.449-17.54 67.885-27.249 106.965-27.249 39.091 0 76.516 9.709 106.976 27.249v-26.972c0.011-10.342-8.398-18.751-18.74-18.751zM722.886 937.244c27.898 0 50.514-22.616 50.514-50.514v-160.636c-0.29-37.893 6.211-75.532 19.195-111.132l62.638-179.831c19.358-53.797 29.27-110.535 29.298-167.708v-215.192c0-39.058-31.663-70.72-70.72-70.72h-242.469c-39.058 0-70.72 31.663-70.72 70.72v215.192c0.028 57.173 9.94 113.911 29.298 167.708l62.638 179.831c12.985 35.6 19.486 73.239 19.195 111.132v160.636c0 27.898 22.616 50.514 50.514 50.514h60.617zM662.268 896.833c-5.58 0-10.103-4.523-10.103-10.103v-60.617h80.823v60.617c0 5.58-4.523 10.103-10.103 10.103h-60.617zM630.949 600.818l-10.103-26.268h143.461l-10.103 26.268c-14.15 40.247-21.325 82.614-21.216 125.276v59.607h-80.823v-59.607c0.109-42.662-7.066-85.029-21.216-125.276zM844.12 267.423c-0.092 52.628-8.97 104.87-26.268 154.574l-39.401 112.142h-171.749l-39.401-112.142c-17.297-49.704-26.175-101.947-26.268-154.574v-215.192c0-16.739 13.57-30.309 30.309-30.309h242.469c16.739 0 30.309 13.57 30.309 30.309v215.192zM773.4 267.423c11.159 0 20.206-9.046 20.206-20.206v-131.338c0-11.159-9.046-20.206-20.206-20.206h-161.646c-11.159 0-20.206 9.046-20.206 20.206v131.338c0 11.159 9.046 20.206 20.206 20.206h161.646zM753.194 136.085v90.926h-121.235v-90.926h121.235z" />
<glyph unicode="&#xe915;" glyph-name="navigation" horiz-adv-x="1222" d="M0 960h1222.194v-66.065h-1222.194v66.065zM0 497.548h1222.194v-66.065h-1222.194v66.065zM0 2.065h1222.194v-66.065h-1222.194v66.065z" />
<glyph unicode="&#xe916;" glyph-name="persons" horiz-adv-x="973" d="M645.289 434.948c61.668 53.752 112.401 144.137 112.401 232.176 0 161.485-131.392 292.876-292.888 292.876s-292.876-131.392-292.876-292.888c0-161.519 131.392-292.911 292.876-292.911 90.567 0 386.143-14.076 386.143-195.266 0-76.456-43.927-164.162-386.143-164.162-342.262 0-386.132 87.705-386.132 164.162 0 79.536 30.621 102.406 94.916 121.178 23.926 6.986 37.596 20.496 30.622 44.384-6.963 23.946-31.852 37.679-55.923 30.656-96.968-28.292-148.286-75.363-148.286-196.218 0-254.361 334.503-242.856 464.803-242.856 130.277 0 464.803-11.505 464.803 242.868 0 136.045-103.447 218.726-284.316 256.001zM250.586 669.981c0 116.552 94.803 211.348 211.336 211.348 116.545 0 211.348-94.796 211.348-211.348s-94.803-211.336-211.348-211.336c-116.533 0-211.336 94.784-211.336 211.336z" />
<glyph unicode="&#xe917;" glyph-name="phone-small" d="M624.916 252.25c16.603 16.531 16.603 16.531 36.54 36.369 18.497 18.401 33.045 32.857 42.322 42.049 46.217 45.8 107.955 45.805 154.261-0.067 43.039-42.64 86.636-86.204 130.994-130.884 46.851-47.203 46.552-108.968-0.485-156.427-9.308-9.39-24.559-20.563-45.286-33.906-4.624-2.976-9.483-6.034-14.552-9.16-13.648-8.418-28.212-16.974-42.768-25.242-8.733-4.961-15.548-8.736-18.906-10.552-53.255-30.713-139.765-37.362-195.251-15.928-5.57 1.696-15.529 5.079-29.252 10.292-22.594 8.582-47.697 19.281-74.686 32.243-76.98 36.971-153.93 84.746-225.834 144.552-28.875 24.017-56.401 49.58-82.382 76.735-20.962 21.909-40.885 44.736-59.797 68.386-62.266 77.866-111.159 161.196-148.234 244.553-12.997 29.221-23.601 56.397-31.999 80.854-5.098 14.847-8.359 25.614-9.262 29.387-20.884 57.497-9.046 144.047 25.77 194.978 2.176 3.367 5.989 9.142 11.009 16.534 8.364 12.316 17.058 24.641 25.671 36.203 3.737 5.017 7.388 9.792 10.936 14.293 9.101 11.545 17.362 21.088 24.779 28.383 46.294 45.519 107.923 45.455 154.301-0.077 18.904-18.548 100.564-100.247 130.105-130.035 47.806-48.244 47.915-109.225 0.169-157.197-7.162-7.198-22.72-22.784-44.182-44.266-18.228-18.242-18.228-18.242-33.374-33.396-7.815-7.818-10.59-10.594-12.387-12.392 3.040-7.719 8.079-19.646 14.948-34.493 13.296-28.739 28.533-57.464 45.388-84.129 18.367-29.057 37.53-53.814 57.098-72.888 18.071-17.615 39.628-34.665 63.933-50.978 28.364-19.038 58.907-36.075 89.462-50.809 15.831-7.634 28.534-13.189 37.186-16.693 1.967 1.96 4.921 4.901 13.767 13.71zM932.266 164.167c-42.386 42.694-84.043 84.321-125.162 125.060-24.229 24.002-50.931 24-75.081 0.068-8.855-8.774-22.771-22.601-40.359-40.099-19.19-19.095-19.19-19.095-35.086-34.923-12.714-12.662-12.714-12.662-15.893-15.828-12.643-12.593-33.762-16.633-49.492-10-8.681 3.366-23.437 9.685-42.272 18.768-31.321 15.104-62.654 32.582-92.034 52.303-25.721 17.264-48.775 35.499-68.498 54.724-21.955 21.401-42.698 48.201-62.29 79.197-17.456 27.617-52.393 76.379-66.008 105.807-8.183 17.688-13.922 31.541-16.804 39.183-6.549 16.296-2.127 37.049 10.185 49.366 2.9 2.901 2.9 2.901 14.504 14.509 14.504 14.512 14.504 14.512 31.908 31.931 20.577 20.596 35.467 35.514 42.295 42.376 25.679 25.802 25.633 51.734-0.232 77.837-28.131 28.367-106.215 106.492-124.113 124.052-24.359 23.915-51.191 23.943-75.428 0.111-5.299-5.213-11.902-12.84-19.39-22.34-3.093-3.924-6.307-8.128-9.616-12.571-7.753-10.408-15.662-21.621-23.282-32.841-4.57-6.73-8.010-11.94-10.261-15.407-24.45-35.779-33.414-101.315-18.478-142.723 1.239-4.633 4.016-13.804 8.499-26.861 7.567-22.038 17.176-46.666 28.992-73.232 33.815-76.029 97.759-171.406 154.452-242.304 17.174-21.477 35.252-42.191 54.258-62.055 23.505-24.568 48.437-47.723 74.617-69.499 65.387-54.387 135.529-97.937 205.643-131.611 24.495-11.765 47.202-21.442 67.516-29.158 12.029-4.569 20.471-7.437 26.479-9.336 40.373-15.542 106.935-10.426 144.992 11.513 3.518 1.913 9.77 5.377 17.835 9.957 13.441 7.635 26.874 15.527 39.36 23.228 4.583 2.827 8.958 5.579 13.096 8.243 16.839 10.84 29.155 19.863 34.653 25.409 25.189 25.416 25.318 52.136 0.493 77.148z" />
<glyph unicode="&#xe918;" glyph-name="phone" horiz-adv-x="956" d="M721.849-64c-158.225-0.011-370.738 121.558-516.802 295.624-149.571 178.263-232.368 419.124-196.877 572.72 8.071 34.897 105.609 109.105 147.736 139.784 12.453 10.24 28.132 15.873 44.221 15.873 20.038 0 38.836-8.687 51.58-23.826l1.996-2.374 92.628-245.63c15.161-33.894 5.557-79.755-21.56-102.555-22.121-18.463-56.22-47.005-67.529-56.608-5.18-26.47 17.082-79.334 58.173-136.881 64.086-89.736 152.506-162.833 197.687-163.556l65.856 55.313c14.298 12.010 32.297 18.355 52.055 18.355 16.542 0 33.732-4.575 49.681-13.229l224.642-131.82 2.018-2.396c23.988-28.574 20.448-71.284-7.78-95.574-37.476-36.743-127.266-121.159-163.156-122.874-4.791-0.237-9.658-0.345-14.568-0.345zM200.126 923.754c-7.813 0-15.42-2.784-21.441-7.834l-0.982-0.766c-60.946-44.35-129.424-102.771-134.226-119.054-33.117-143.301 46.519-370.932 189.356-541.178 143.722-171.282 352.588-289.354 501.846-282.373 16.834 1.975 85.992 60.018 139.956 112.99l1.025 0.928c12.755 10.737 15.021 29.416 5.622 42.807l-218.405 128.183c-20.826 11.287-45.656 11.233-60.59-1.316l-74.618-62.684-5.374-0.647c-2.762-0.335-5.6-0.496-8.514-0.496-65.791 0-164.43 89.919-227.868 178.738-30.646 42.926-79.431 122.583-61.82 173.936 1.942 5.417 1.942 5.417 77.402 68.424 14.794 12.431 20.341 41.178 11.611 60.266l-0.475 1.144-90.534 240.030c-5.741 5.687-13.607 8.902-21.97 8.902z" />
<glyph unicode="&#xe919;" glyph-name="play" horiz-adv-x="881" d="M0 934.738c-0.004 9.045 4.719 17.401 12.382 21.906s17.095 4.472 24.727-0.088l823.495-486.738c7.586-4.523 12.252-12.832 12.252-21.818s-4.666-17.295-12.252-21.818l-823.495-486.738c-7.632-4.56-17.064-4.594-24.727-0.088s-12.386 12.862-12.382 21.906v973.477zM28.998-35.792l810.981 483.792-810.981 483.792v-967.583z" />
<glyph unicode="&#xe91a;" glyph-name="position" horiz-adv-x="747" d="M385.672-45.591l-10.277-11.397-10.277 11.397c-233.967 259.463-351.281 459.548-351.281 602.317 0 214.852 161.626 389.436 361.558 389.436s361.558-174.585 361.558-389.436c0-142.769-117.314-342.854-351.281-602.317zM709.278 556.726c0 200.023-149.733 361.761-333.882 361.761s-333.882-161.738-333.882-361.761c0-131.802 111.083-323.24 333.882-572.34 222.799 249.1 333.882 440.538 333.882 572.34zM375.396 364.973c-108.965 0-196.848 94.93-196.848 211.521s87.883 211.521 196.848 211.521c108.965 0 196.848-94.929 196.848-211.521s-87.883-211.521-196.848-211.521zM375.396 392.649c93.183 0 169.173 82.082 169.173 183.846s-75.99 183.846-169.173 183.846c-93.183 0-169.173-82.082-169.173-183.846s75.99-183.846 169.173-183.846z" />
<glyph unicode="&#xe91b;" glyph-name="safe" d="M877.833 868.978h-708.9c-30.411 0-55.156-24.445-55.156-54.488v-700.305c0-30.043 24.744-54.488 55.156-54.488h0.954v-55.43h169.687l54.752 54.089v1.341h258.115v-1.341l54.752-54.089h169.675v55.43h0.965c30.411 0 55.145 24.445 55.145 54.488v700.305c0 30.043-24.733 54.488-55.145 54.488zM899.312 114.185c0-11.707-9.628-21.23-21.479-21.23h-708.9c-11.85 0-21.49 9.523-21.49 21.23v700.305c0 11.707 9.64 21.23 21.49 21.23h708.9c11.85 0 21.479-9.523 21.479-21.23v-700.305zM325.636 37.525h-122.083v22.172h144.527l-22.444-22.172zM843.202 37.525h-122.072l-22.444 22.172h144.516v-22.172zM814.441 777.956c15.167 0 27.515-12.333 27.515-27.492v-559.427c0-15.148-12.348-27.481-27.515-27.481h-560.13c-15.178 0-27.526 12.333-27.526 27.481v39.535h-5.592c-21.587 0-39.147 17.527-39.147 39.088v11.182c0 21.56 17.56 39.099 39.147 39.099h5.592v301.62h-5.592c-21.587 0-39.147 17.527-39.147 39.088v11.182c0 21.56 17.56 39.099 39.147 39.099h5.592v39.535c0 15.159 12.348 27.492 27.526 27.492h560.13zM808.401 197.069v547.373h-548.062v-33.513h39.147c21.587 0 39.147-17.539 39.147-39.099v-11.182c0-21.56-17.56-39.088-39.147-39.088h-39.147v-301.62h39.147c21.587 0 39.147-17.539 39.147-39.099v-11.182c0-21.56-17.56-39.088-39.147-39.088h-39.147v-33.502h548.062zM215.599 660.648c0-3.016 2.561-5.574 5.592-5.574h78.295c3.031 0 5.592 2.558 5.592 5.574v11.182c0 3.027-2.561 5.586-5.592 5.586h-78.295c-3.031 0-5.592-2.558-5.592-5.586v-11.182zM215.599 269.659c0-3.016 2.561-5.574 5.592-5.574h78.295c3.031 0 5.592 2.558 5.592 5.574v11.182c0 3.027-2.561 5.586-5.592 5.586h-78.295c-3.031 0-5.592-2.558-5.592-5.586v-11.182zM523.372 277.333c-100.378 0-182.039 81.672-182.039 182.050s81.661 182.039 182.039 182.039c100.378 0 182.050-81.661 182.050-182.039s-81.672-182.050-182.050-182.050zM376.537 476.439v0.011h38.743v-34.134h-38.765c3.254-28.002 14.336-53.602 31.017-74.629l27.33 27.319 24.133-24.133-27.33-27.319c21.027-16.68 46.628-27.785 74.629-31.017v38.743h34.134v-38.765c28.002 3.243 53.614 14.336 74.641 31.017l-27.33 27.319 24.133 24.133 27.33-27.319c16.68 21.027 27.774 46.628 31.017 74.629h-38.754v34.134h38.777c-3.243 28.002-14.325 53.614-31.005 74.641l-27.342-27.33-24.133 24.133 27.342 27.33c-21.038 16.68-46.639 27.785-74.652 31.017v-38.754h-34.134v38.765c-28.002-3.243-53.614-14.336-74.641-31.017l27.342-27.33-24.133-24.133-27.342 27.33c-16.68-21.027-27.774-46.628-31.005-74.641zM523.378 391.111c-37.641 0-68.267 30.625-68.267 68.267s30.625 68.267 68.267 68.267c37.641 0 68.267-30.625 68.267-68.267s-30.625-68.267-68.267-68.267zM523.378 496.137c-20.27 0-36.759-16.489-36.759-36.759s16.489-36.759 36.759-36.759c20.27 0 36.759 16.489 36.759 36.759s-16.489 36.759-36.759 36.759z" />
<glyph unicode="&#xe91c;" glyph-name="sauna" d="M190.297 707.699l-33.375 166.874 65.415 13.116 33.375-166.874-65.415-13.116zM589.46 707.699l-65.415 13.116 33.375 166.874 65.415-13.116-33.375-166.874zM356.504 714.24h66.75v200.249h-66.75v-200.249zM173.61 504.42l40.884-295.508c2.336-16.354 16.521-28.702 33.041-28.702h75.594v-48.395h-75.594c-49.752 0.212-73.525 18.397-80.769 67.619l-54.534 399.662h-89.476v48.395h129.094l12.015-84.372c78.297 28.769 173.883 22.194 243.503-20.692 56.871-35.077 143.612-37.046 204.588-6.608l15.953 111.672h129.094v-48.395h-89.51l-38.848-290.059-47.727 9.445 20.192 159.764c-27.509-8.416-56.105-12.745-84.872-12.849-51.097 0-102.194 12.849-143.845 38.548-55.135 33.942-138.238 36.946-198.814 9.579l0.033-9.102zM699.354 118.9c-14.331-43.121-63.787-81.304-109.227-81.259-45.433-0.025-94.878 38.151-109.227 81.259l-20.459 70.445h259.371l-20.459-70.445zM986.687 647.49c-71.853 0.051-135.65-45.951-158.297-114.142l-95.419-295.608h-337.504l40.476-139.933c23.366-70.411 79.997-108.651 154.184-108.561 74.187-0.090 121.716 38.149 145.082 108.561l138.172 414.482c13.613 40.875 70.224 86.795 113.306 86.773h37.313v48.428h-37.313z" />
<glyph unicode="&#xe91d;" glyph-name="tripadvisor" d="M512-64c282.77 0 512 229.23 512 512s-229.23 512-512 512c-282.77 0-512-229.23-512-512s229.23-512 512-512zM615.876 695.645c23.006-3.263 45.535-9.060 67.788-15.922 38.861-12.004 75.532-28.681 110.019-50.315 2.4-1.493 5.603-2.441 8.43-2.441 40.517-0.168 81.009-0.109 121.476-0.143 3.261 0 6.506-0.344 9.759-0.528 0-0.797 0.117-1.132-0.017-1.309-1.89-2.928-3.805-5.797-5.703-8.707-13.748-21.148-25.489-43.252-32.414-67.697-0.761-2.617-0.912-4.824 0.861-7.399 36.060-51.943 47.567-108.969 32.497-170.442-13.213-53.914-44.021-95.95-90.827-125.705-33.459-21.282-70.422-31.416-109.919-31.637-16.583-0.097-33.099 2.142-49.306 6.354-39.497 10.285-73.349 30.023-101.238 59.937-3.671 3.926-7.142 8.028-11.064 12.457-14.752-22.054-29.269-43.747-44.13-66.002-14.81 22.197-29.127 43.68-43.411 65.080-0.987-0.52-1.271-0.579-1.463-0.763-0.326-0.268-0.602-0.596-0.87-0.906-33.735-39.972-76.184-64.476-127.907-72.671-28.759-4.572-57.259-2.928-85.199 4.798-39.597 10.914-73.249 31.869-100.436 62.781-26.577 30.233-43.093 65.331-49.306 105.245-7.1 37.237 1.555 73.158 3.705 81.874 6.255 25.334 17.16 48.596 32.129 69.987 1.054 1.518 1.422 4.203 0.92 6.015-6.105 22.457-16.625 42.883-28.943 62.445-3.128 4.974-6.874 9.58-10.336 14.353v1.661c0.694-0.092 1.38-0.218 2.057-0.218 41.445-0.017 82.882-0.034 124.328 0.050 1.806 0 3.813 0.747 5.352 1.736 29.119 18.74 60.144 33.588 92.742 45.148 23.516 8.322 47.508 14.823 71.986 19.571 23.7 4.597 47.525 7.843 71.601 9.429 58.714 4.505 105.629-1.728 136.838-6.115zM563.919 421.074c0-91.294 73.842-165.87 164.527-165.519 91.028 0.328 164.535 72.815 164.469 165.116-0.067 95.119-76.987 166.625-167.998 164.779-89.848-1.887-160.179-74.534-160.998-164.377zM317.128 586.063c-88.527 0.772-165.715-73.342-164.168-167.749 1.438-88.031 73.775-162.674 166.016-161.877 90.183 0.78 162.671 74.643 162.838 164.1 0.134 91.907-73.24 165.526-164.686 165.526zM325.29 629.131c50-3.062 93.938-20.544 131.051-54.401 37.038-33.79 58.739-75.943 66.625-125.512 8.12 48.982 29.244 90.732 65.588 124.195 36.411 33.488 79.746 51.062 128.936 54.778-58.363 26.030-119.921 37.086-183.268 38.311-72.011 1.418-142.048-9.228-208.933-37.372zM728.111 525.228c56.323 0.101 101.941-45.425 101.941-101.864 0-56.657-44.841-100.463-97.743-102.476-59.082-2.273-106.356 44.938-106.34 102.225 0.050 57.932 47.659 103.072 102.142 102.116zM794.544 423.113c-0.025 36.835-29.713 66.757-66.165 66.757-36.879 0-66.901-29.771-67.061-66.489-0.133-36.558 30.048-66.975 66.576-67.077 36.603-0.142 66.667 30.049 66.65 66.808zM314.954 525.228c56.289 0.059 101.974-45.542 101.841-101.965-0.168-57.127-45.050-99.96-97.024-102.334-59.316-2.726-107.176 44.703-107.067 102.292 0.117 58.343 48.052 102.98 102.251 102.007zM381.312 423.339c-0.117 37.053-29.98 66.59-67.27 66.523-35.976-0.067-66.107-30.518-66.032-66.732 0.092-36.633 30.198-66.757 66.835-66.858 36.419-0.084 66.558 30.334 66.467 67.068zM728.162 457.012c18.665 0.017 33.969-15.343 33.794-33.957-0.176-18.656-15.228-33.773-33.584-33.781-18.908 0-34.095 14.982-34.053 33.546 0.034 19.26 14.794 34.176 33.844 34.192zM314.778 457.313c18.95 0.017 34.178-15.167 34.254-34.117 0.075-18.782-15.296-34.209-34.153-34.26-19.309-0.042-34.203 14.924-34.187 34.402 0 19.109 14.86 33.949 34.086 33.974z" />
<glyph unicode="&#xe91e;" glyph-name="tv" d="M942.157 755.2h-875.28c-11.245 0-21.366-8.996-21.366-21.366v-489.168c0-12.37 10.121-21.366 21.366-21.366h351.951v-60.724h-58.475c-12.297 0-22.266-9.969-22.266-22.266v0c0-12.297 9.969-22.266 22.266-22.266h288.328c12.297 0 22.266 9.969 22.266 22.266v0c0 12.297-9.969 22.266-22.266 22.266h-58.475v60.724h351.951c12.37 0 21.366 10.121 21.366 21.366v489.168c0 12.37-54.902 21.366-21.366 21.366zM545.666 162.576h-81.182v60.724h81.182v-60.724zM913.694 262.097h-818.36c-3.175 0-5.291 2.016-5.291 5.040v438.492c0 3.024 2.116 5.040 5.291 5.040h817.302c3.175 0 5.291-2.016 5.291-5.040v-438.492c1.058-3.024-1.058-5.040-4.233-5.040z" />
<glyph unicode="&#xe91f;" glyph-name="twitter" horiz-adv-x="1280" d="M1257.724 839.025c-46.256-20.523-95.989-34.392-148.175-40.646 53.267 31.949 94.16 82.511 113.421 142.746-49.847-29.577-105.048-51.038-163.85-62.597-47.047 50.138-114.116 81.472-188.325 81.472-142.512 0-258.015-115.517-258.015-258.015 0-20.232 2.258-39.926 6.682-58.801-214.454 10.745-404.58 113.502-531.842 269.588-22.209-38.093-34.935-82.406-34.935-129.7 0-89.531 45.533-168.488 114.788-214.783-42.289 1.319-82.082 12.936-116.879 32.273-0.034-1.086-0.034-2.158-0.034-3.234 0-125.033 88.945-229.3 206.977-253.018-21.633-5.892-44.427-9.021-67.956-9.021-16.646 0-32.782 1.572-48.561 4.606 32.858-102.505 128.123-177.114 241.059-179.205-88.383-69.213-199.618-110.44-320.517-110.44-20.813 0-41.365 1.229-61.564 3.596 114.231-73.214 249.846-115.922 395.574-115.922 474.588 0 734.084 393.168 734.084 734.156 0 11.183-0.248 22.29-0.729 33.349 50.39 36.407 94.136 81.839 128.748 133.592z" />
<glyph unicode="&#xe920;" glyph-name="wifi" d="M499.27 282.962c-64.678 0-118.577-53.899-118.577-118.577s53.899-118.577 118.577-118.577c64.678 0 118.577 53.899 118.577 118.577s-53.899 118.577-118.577 118.577zM499.273 95.855c-37.201 0-68.528 31.327-68.528 68.528s31.327 68.528 68.528 68.528c37.201 0 68.528-31.327 68.528-68.528s-31.327-68.528-68.528-68.528zM117.476 465.904c99.855 97.897 234.952 158.593 385.713 158.593 152.719 0 289.774-62.654 389.629-162.509l-27.411-38.305c-92.023 92.023-221.247 150.761-362.218 150.761s-266.279-56.78-358.302-146.845l-27.411 38.305zM234.952 340.596c66.57 66.57 158.593 107.686 260.405 107.686 103.771 0 197.751-43.075 264.321-111.602l-27.411-38.305c-60.696 60.696-144.887 99.855-236.91 99.855-90.065 0-172.298-37.201-232.994-95.939l-27.411 38.305zM509.063 800.711c199.709 0 381.797-82.233 514.937-215.373l-27.411-38.305c-125.308 125.308-297.606 203.625-487.526 203.625-187.962 0-358.302-74.402-481.652-197.751l-27.411 38.305c131.182 129.224 311.312 209.499 509.063 209.499z" />
<glyph unicode="&#xe921;" glyph-name="youtube" horiz-adv-x="2458" d="M326.992 797.080v-0.002l-0.658-4.806c-0.812-5.874-31.519-109.016-63.679-213.878-3.544-11.551-12.499-41.395-19.902-66.32-7.405-24.927-16.381-54.532-19.952-65.795l-5.458-17.216v-124.787c0-97.689-0.16-121.215-2.173-127.127-0.576-6.878-1.437-8.133-2.728-8.486-8.070-2.207-93.341-1.122-94.778 1.205-1.881 3.042-1.601 184.913 0.325 210.672 1.669 22.301 1.401 41.403-6.239 71.884-4.319 16.018-10.648 35.2-19.518 60.048-7.697 21.558-21.584 63.341-30.861 92.845-67.012 213.149-63.455 200.635-57.053 200.688 44.141 0.378 98.659 0.114 99.252-0.477 0.424-0.428 14.775-52.478 31.89-115.671s31.399-115.797 31.743-116.896c0.344-1.099 10.39 35.707 22.324 81.793 25.021 96.609 39.059 149.951 39.595 150.441 1.118 1.023 13.562 1.26 54.223 1.030l45.006-0.253-0.991-7.184c-0.041-0.304-0.169-0.888-0.369-1.711zM804.26 645.707v-0.004l89.535 1.196v-470.603l-1.032-0.211v-6.3l-6.079-1.249c-7.334-1.502-75.219-1.407-80.69 0.12-3.342 0.931-3.869 3.977-3.869 22.413v21.335l-12.712-12.378c-29.247-28.476-60.814-41.736-90.081-37.838h-0.002c-22.223 2.96-35.192 11.536-44.095 29.155-11.176 22.124-11.171 21.995-11.171 242.266v205.587h1.033v6.511h89.65l0.948-189.483c1.029-205.853 0.722-201.049 13.043-204.142 11.313-2.838 23.824 3.226 39.435 19.119l13.941 14.189 0.547 174.161 0.566 179.643 1.014 0.013 0.019 6.5zM576.866 552.862v0.002c3.76-16.144 4.12-28.487 4.122-141.482 0-88.591-0.282-123.34-4.249-144.837-2.129-15.735-5.663-24.349-11.516-36.738-13.549-28.679-44.186-53.944-76.154-62.809-14.068-3.901-38.529-6.18-50.596-4.717-40.081 4.869-76.905 28.453-94.646 60.626-18.086 32.799-19.737 49.98-18.672 194.392 0.69 93.722 1.008 113.84 3.698 127.323 0.7 5.705 1.624 9.532 2.884 14.081 10.57 38.183 31.031 64.227 62.803 79.924 43.599 21.545 90.589 18.735 131.729-7.88 26.189-16.942 42.106-41.441 50.598-77.886zM474.635 258.509l-0.002 0.002c6.363 4.853 10.106 7.874 12.37 19.157 2.226 17.879 2.469 51.186 2.907 119.34 0.664 102.78 0.295 120.247-2.825 134.271-4.201 18.898-11.577 27.921-25.983 31.801-18.482 4.979-35.411-5.473-41.476-25.485-3.677-39.992-3.35-243.927 0.907-258.6 3.418-11.771 14.522-24.672 22.75-26.426 10.693-2.281 23.837 0.211 31.352 5.941zM2186.577 450.39h0.002c-37.354 0-43.551 0.534-44.696 3.523-2.050 5.344 0.806 67.318 3.523 76.335 6.378 21.191 19.904 31.502 41.242 31.502 17.761 0 28.957-6.836 36.543-22.244 4.812-9.764 5.342-13.881 6.011-49.876l0.69-39.24h-43.316zM1897.053 539.642v-0.002c4.025-8.102 4.297-15.381 4.766-138.991 0.451-118.595 0.148-131.408-3.317-141.411-2.665-7.682-6.084-12.517-11.331-16.026-13.254-8.867-32.496-6.036-50.015 7.321l-7.737 5.872v281.924l7.737 5.872c10.387 7.92 21.165 12.018 30.881 12.366 12.492 0.449 23.24-5.283 29.016-16.925zM2434.177 666.638l0.002 0.006c6.84-81.966 8.465-132.995 7.245-227.563-1.458-113.185-8.657-212.876-19.411-268.856-11.368-59.164-38.272-109.614-73.015-136.912-26.845-21.094-55.433-30.502-100.372-33.040-13.37-0.757-30.282-1.836-37.58-2.399-25.948-2.006-164.796-7.635-240.958-9.773-113.202-3.177-311.221-4.308-418.915-2.395-51.674 0.916-112.85 2.348-135.953 3.179-155.112 5.58-261.605 11.543-282.882 15.843-30.329 6.125-64.223 26.649-83.893 50.798-31.527 38.702-48.319 85.659-56.471 157.937-18.959 168.041-18.539 363.963 1.129 526.129 8.612 71.019 30.044 122.365 66.016 158.163 20.528 20.431 40.253 31.867 66.557 38.595 56.918 14.556 502.59 26.149 773.668 20.125 156.578-3.481 325.777-10.697 370.746-15.809 58.157-6.614 98.995-36.734 127.252-93.86 21.34-43.135 28.204-76.709 36.835-180.166zM1354.756 704.126h0.004l50.361 0.622-1.244 82.76-290.697 1.175v-83.935l98.372-1.243 0.551-266.381c0.3-146.508 1.004-267.599 1.589-269.145 0.816-2.169 11.064-2.675 44.832-2.211l43.66 0.553 2.211 537.183 50.361 0.622zM1663.623 396.229l-0.004 0.006v231.010h-79.582v-356.395l-17.132-17.064c-13.6-13.522-19.32-17.592-27.702-19.896-14.246-3.912-23.206-1.226-29.082 8.773-4.431 7.545-4.517 10.941-5.11 196.124l-0.622 188.455-79.515 0.004v-200.135c0-217.94 0.232-222.638 12.435-243.654 13.336-22.955 44.633-30.149 77.58-17.822 15.91 5.954 34.554 18.832 50.292 34.818 7.259 7.37 14.469 13.4 16.028 13.4 2.135 0 2.832-6.023 2.832-24.316v-24.316h79.582v231.010zM1974.009 198.24h0.002c13.453 29.978 13.473 30.681 13.474 199.093 0 138.256-0.334 155.299-3.8 170.218-11.113 47.834-35.367 68.778-76.059 65.698-22.822-1.724-40.806-10.809-62.314-31.571-9.349-9.020-17.742-16.442-18.653-16.442s-1.657 45.76-1.657 101.689v101.689h-79.582v-623.398h79.582v21.001c0 13.921 0.859 21.001 2.486 21.001 1.352 0 10.292-7.338 19.896-16.372 30.947-29.116 57.762-37.156 91.188-27.288 12.809 3.779 28.43 19.069 35.438 34.681zM2310.715 290.671l0.002-0.002 1.312 31.504h-81.931l-1.036-28.187c-1.146-32.099-4.439-43.095-16.094-53.33-12.437-10.922-35.283-11.676-50.153-1.658-17.678 11.912-22.094 32.052-21.21 97.543l0.622 46.424 169.665 1.175-1.175 69.082c-1.3 77.031-2.907 88.722-15.891 116.059-19.242 40.519-65.164 65.402-111.428 64.453-12.954-0.266-25.919-2.587-38.34-7.116-42.867-15.63-68.194-43.798-78.409-87.321-3.609-15.383-4.006-29.215-4.006-141.965 0-138.282 0.506-143.925 14.646-172.222 25.189-50.41 88.292-76.698 145.624-60.655 42.58 11.92 72.040 40.97 83.106 82.002 1.89 7.011 3.991 26.888 4.698 44.213z" />
<glyph unicode="&#xe922;" glyph-name="world" d="M327.299 175.975c38.245-104.996 97.187-175.562 162.522-185.828v203.36c-56.464-0.991-111.303-7.047-162.522-17.532zM316.754 207.521c54.561 11.442 112.976 18.004 173.067 19.023v209.187h-207.464c1.565-83.776 14.045-161.681 34.397-228.21zM685.52 176.373c-50.85 10.254-105.73 16.177-162.667 17.14v-203.365c65.417 10.279 124.425 81.010 162.667 186.226zM696.047 207.934c20.277 66.438 32.708 144.194 34.27 227.797h-207.464v-209.182c60.569-0.99 119.018-7.41 173.194-18.615zM140.153 146.082c42.295 22.332 91.124 40.549 144.282 53.978-21.044 69.563-33.578 149.948-35.117 235.671h-216.132c2.758-109.687 42.391-210.214 106.967-289.649zM162.523 120.468c70.491-75.184 164.964-127.61 271.213-145.073-57.574 32.018-106.113 101.336-138.944 193.211-48.61-12.119-93.326-28.366-132.269-48.138zM879.301 140.574c67.272 80.289 108.708 182.963 111.514 295.228-0.562-0.047-1.141-0.071-1.735-0.071h-225.724c-1.535-85.521-14.013-165.73-34.968-235.18 54.37-13.618 103.663-32.252 145.47-55.179 2.221-1.218 4.052-2.872 5.443-4.798zM857.747 116.534c-39.831 21.812-87.204 39.588-139.693 52.553-33.642-94.382-83.844-165.026-143.392-195.992 110.712 14.466 209.534 66.741 283.084 143.44zM489.821 677.945c-60.87 0.995-119.598 7.474-174.001 18.783-20.026-66.602-32.198-144.402-33.512-227.964h207.513v209.182zM522.853 677.945v-209.182h207.513c-1.314 83.562-13.487 161.362-33.512 227.964-54.402-11.308-113.131-17.788-174.001-18.783zM489.821 917.178c-65.962-10.364-125.409-82.193-163.619-188.865 51.116-10.372 106.327-16.364 163.619-17.332v206.197zM522.853 917.178v-206.197c57.292 0.968 112.502 6.96 163.619 17.332-38.21 106.671-97.656 178.5-163.619 188.865zM33.474 468.763h215.797c1.292 85.502 13.518 165.768 34.226 235.378-51.401 12.932-98.246 30.352-138.494 51.648-65.735-78.298-106.876-177.938-111.529-287.026zM990.528 468.714c-4.727 111.1-47.301 212.402-115.158 291.344-0.481-0.335-0.985-0.648-1.511-0.936-41.605-22.816-90.624-41.381-144.681-54.981 20.708-69.61 32.935-149.876 34.226-235.378h225.677c0.494 0 0.976-0.017 1.448-0.049zM167.873 781.147c36.765-18.598 79.273-33.949 125.826-45.511 28.215 80.248 68.34 143.597 116.001 180.383-93.828-20.414-177.392-68.326-241.827-134.872zM852.318 785.037c-67.458 68.11-155.217 116.077-253.453 134.074 49.464-36.267 91.088-100.931 120.111-183.475 49.759 12.359 94.898 29.047 133.342 49.401zM512-64c-282.77 0-512 229.23-512 512s229.23 512 512 512c282.77 0 512-229.23 512-512s-229.23-512-512-512z" />
<glyph unicode="&#xe923;" glyph-name="bathrobe" d="M469.307 129.037c-34.909-6.134-72.104-10.993-102.355-10.993-80.302 0-209.542 34.24-215.014 35.678-8.209 2.175-13.682 9.928-12.945 18.383l15.959 191.51h-136.008c-9.682 0-17.541 7.858-17.541 17.541 0 96.334 38.344 319.978 61.182 444.728 6.806 37.081 36.485 65.567 73.847 70.9l117.979 26.943c12.279 8.349 57.323 36.274 112.541 36.274 56.13 0 101.736-28.837 113.103-36.695l87.809-27.153c34.661-4.736 64.339-33.222 71.145-70.268 13.684-74.685 40.896-229.106 53.915-344.484-11.83-1.395-23.177-4.737-34.145-9.668-12.536 114.112-40.402 272.18-54.255 347.837-4.069 22.207-21.891 39.291-44.308 42.484l-76.799 23.557-99.768-299.304c-0.044-0.137-0.089-0.273-0.136-0.409l-29.023-87.070c4.552-2.176 8.745-4.988 12.463-8.32 9.317 8.35 21.618 13.435 35.081 13.435 22.865 0 42.375-14.665 49.616-35.081h85.818l-12.614 227.047c-0.561 9.682 6.876 17.962 16.523 18.488 9.753 0.561 17.962-6.876 18.488-16.523l16.329-293.789c-10.089-11.368-20.070-23.412-30.061-35.726-1.276-1.572-2.545-3.153-3.807-4.741h-90.677c-7.241-20.417-26.75-35.081-49.616-35.081-6.147 0-12.052 1.060-17.541 3.007v-20.547c0-22.865-14.665-42.375-35.081-49.616v-107.721c6.089-0.344 11.96-0.53 17.541-0.53 26.705 0 60.015 4.241 92.013 9.748 1.441-12.076 4.792-23.438 10.342-33.837zM192.539 398.696h86.71v35.081h-84.761l-1.949-35.081zM541.366 398.696l-1.949 35.081h-84.761v-35.081h86.71zM451.268 900.020c-15.802 9.266-47.842 24.899-84.316 24.899-36.471 0-68.509-15.63-84.312-24.909l84.312-252.936 84.316 252.947zM250.103 886.764l-107.286-24.431c-23.82-3.508-41.642-20.558-45.711-42.764-17.225-93.948-55.955-314.856-60.235-420.873h120.54l16.629 299.175c0.526 9.647 8.244 17.19 18.488 16.523 9.647-0.526 17.085-8.805 16.523-18.488l-12.614-227.047h85.818c5.799 16.352 19.469 29.014 36.428 33.408l29.792 89.377-98.373 295.119zM314.33 261.377c-20.417 7.241-35.081 26.75-35.081 49.616v52.622h-89.081l-15.006-179.617c26.501-6.547 85.596-20.329 139.168-27.039v104.418zM384.493 381.156c0-9.682 7.858-17.541 17.541-17.541s17.541 7.858 17.541 17.541v70.163c0 9.682-7.858 17.541-17.541 17.541s-17.541-7.858-17.541-17.541v-70.163zM349.412 451.319c0 9.682-7.858 17.541-17.541 17.541s-17.541-7.858-17.541-17.541v-140.326c0-9.682 7.858-17.541 17.541-17.541s17.541 7.858 17.541 17.541v140.326zM778.227 414.961c42.608-37.038 47.138-101.831 10.1-144.438l-93.006-106.991c-5.707-6.566-15.657-7.265-22.223-1.557l-25.834-29.719c-31.34-36.053-86.166-39.886-122.222-8.543-36.053 31.34-39.886 86.166-8.546 122.219l25.834 29.719c-6.562 5.704-7.258 15.658-1.551 22.223l93.006 106.991c37.038 42.608 101.831 47.138 144.442 10.097zM623.487 152.924l39.413 45.339c1.783 45.498-38.642 80.395-83.214 72.337l-39.413-45.339c-19.944-22.943-17.507-57.832 5.435-77.776s57.835-17.504 77.779 5.439zM694.179 210.232l70.375 80.957c25.642 29.498 22.505 74.357-6.993 99.999s-74.357 22.505-99.999-6.993l-70.375-80.957c54.978 2.756 102.102-38.559 106.991-93.006zM1000.51 137.447c18.382-53.384-10.091-111.762-63.471-130.142l-134.042-46.154c-8.226-2.832-17.192 1.537-20.024 9.763l-37.232-12.82c-45.168-15.552-94.567 8.545-110.119 53.712-15.551 45.163 8.54 94.565 53.708 110.118l37.228 12.819c-2.832 8.226 1.543 17.189 9.769 20.021l134.042 46.154c53.384 18.382 111.76-10.086 130.142-63.471zM735.484-12.118l56.802 19.559c24.291 38.516 6.734 88.94-35.897 104.253l-56.802-19.559c-28.743-9.897-44.079-41.326-34.181-70.074 9.9-28.752 41.335-44.076 70.078-34.179zM825.358 2.17l101.425 34.923c36.955 12.725 56.668 53.143 43.944 90.098-12.723 36.951-53.143 56.668-90.098 43.944l-101.425-34.923c48.989-25.098 69.144-84.444 46.154-134.042z" />
<glyph unicode="&#xe924;" glyph-name="bathtub" d="M995.382 358.028c15.72 0 28.416-7.554 28.618-23.246 0-15.491-12.697-23.045-28.215-23.246-11.286-135.594-101.171-259.501-223.906-305.168v-35.407c0-15.692-7.778-28.366-23.498-28.366s-23.296 12.674-23.296 28.366v19.716c-20.557-4.024-51.958-6.035-73.724-6.035h-278.925c-21.564 0-53.167 2.213-73.724 6.035v-19.716c0-15.692-7.577-28.366-23.296-28.366s-23.296 12.674-23.296 28.366v35.407c-122.936 45.869-212.821 169.574-223.906 305.168-15.72 0.201-28.215 7.755-28.215 23.246 0 15.692 12.697 23.246 28.416 23.246h966.966zM661.602 31.133c149.539 0 273.080 134.75 287.188 280.202h-873.981c14.511-145.653 137.85-280.202 287.389-280.202h299.405zM525.798 479.76c8.242 0 17.729-6.743 17.729-14.985v-44.955c0-8.242-9.488-14.985-17.729-14.985s-17.729 6.743-17.729 14.985v44.955c0 8.242 9.488 14.985 17.729 14.985zM525.798 599.639c8.242 0 17.729-6.743 17.729-14.985v-44.955c0-8.242-9.488-14.985-17.729-14.985s-17.729 6.743-17.729 14.985v44.955c0 8.242 9.488 14.985 17.729 14.985zM525.798 719.518c8.242 0 17.729-6.743 17.729-14.985v-44.955c0-8.242-9.488-14.985-17.729-14.985s-17.729 6.743-17.729 14.985v44.955c0 8.242 9.488 14.985 17.729 14.985zM746.947 503.403c7.138 4.121 18.749 2.983 22.87-4.154l22.477-38.932c4.121-7.138-0.748-17.679-7.885-21.8s-18.749-2.983-22.87 4.154l-22.477 38.932c-4.121 7.138 0.748 17.679 7.885 21.8zM687.075 611.416c7.138 4.121 18.749 2.983 22.87-4.154l22.477-38.932c4.121-7.138-0.748-17.679-7.885-21.8s-18.749-2.983-22.87 4.154l-22.477 38.932c-4.121 7.138 0.748 17.679 7.885 21.8zM631.193 712.229c7.138 4.121 18.749 2.983 22.87-4.154l22.477-38.932c4.121-7.138-0.748-17.679-7.885-21.8s-18.749-2.983-22.87 4.154l-22.477 38.932c-4.121 7.138 0.748 17.679 7.885 21.8zM659.752 854.382v-74.924c0-8.242-6.743-14.985-14.985-14.985h-238.848c-8.242 0-14.985 6.743-14.985 14.985v74.924c0 8.242 6.743 14.985 14.985 14.985l94.218 0.856v74.792c0 8.242 6.743 14.985 14.985 14.985h20.441c8.242 0 14.985-6.743 14.985-14.985v-74.792l94.218-0.856c8.242 0 14.985-6.743 14.985-14.985zM625.48 835.096h-200.275v-36.352h200.275v36.352zM303.238 501.868c7.138-4.121 11.982-14.704 7.862-21.842l-22.477-38.932c-4.121-7.138-15.709-8.233-22.846-4.113s-11.982 14.704-7.862 21.842l22.477 38.932c4.121 7.138 15.709 8.233 22.846 4.113zM366.359 611.197c7.138-4.121 11.982-14.704 7.862-21.842l-22.477-38.932c-4.121-7.138-15.709-8.234-22.846-4.113s-11.982 14.704-7.862 21.842l22.477 38.932c4.121 7.138 15.709 8.233 22.846 4.113zM423.991 711.019c7.138-4.121 11.982-14.704 7.862-21.842l-22.477-38.932c-4.121-7.138-15.709-8.233-22.846-4.113s-11.982 14.704-7.862 21.842l22.477 38.932c4.121 7.138 15.709 8.234 22.846 4.113z" />
<glyph unicode="&#xe925;" glyph-name="coffeemachine" d="M891.936 627.263h-30.138v-488.816h112.097v-18.377c-0.101-76.482-62.077-138.458-138.559-138.559h-651.265c-76.339 0.101-138.256 61.853-138.559 138.192v18.377h112.097v488.265h-112.097v53.476c-0.195 62.138 24.34 121.802 68.192 165.826s103.419 68.794 165.558 68.842h460.884c62.139-0.049 121.705-24.817 165.558-68.842s68.388-103.688 68.192-165.826v-52.557h-45.206v-265.357c0-10.149-8.227-18.377-18.377-18.377s-18.377 8.227-18.377 18.377v265.357zM425.356 553.757l168.881 0.184v68.361h-168.881v-68.545zM82.265 679.82l-0.001-16.723h854.88l-0.001 16.723c0.195 52.391-20.467 102.706-57.427 139.838s-87.178 58.029-139.569 58.078h-460.884c-52.391-0.048-102.609-20.945-139.569-58.078s-57.623-87.447-57.427-139.838zM935.489 101.326v0.368h-851.57c8.939-48.298 51.034-83.365 100.152-83.43h651.265c49.004 0.032 91.058 34.91 100.152 83.062zM442.63 278.293c0-41.814 33.897-75.711 75.711-75.711s75.711 33.897 75.711 75.711v75.711h-151.423v-75.711zM579.719 158.11h-140.029c-28.431 1.205-56.613-5.745-81.224-20.030h302.478c-24.611 14.285-52.794 21.235-81.224 20.030zM708.355 138.079h116.691v484.222h-193.321v-105.298h-63.032c0-0.551 0-1.654 0-1.654v-35.099c0-10.149-8.227-18.377-18.377-18.377s-18.377 8.227-18.377 18.377v35.099c0 0.551 0 1.654 0 1.654h-36.753c0-0.551 0-1.654 0-1.654v-34.915c0-10.149-8.227-18.377-18.377-18.377s-18.377 8.227-18.377 18.377v35.099c0 0.551 0 1.654 0 1.654h-69.831v105.114h-194.24v-484.039h115.956c14.15 33.445 64.685 56.784 128.636 56.784h3.675c-23.517 21.347-36.875 51.669-36.753 83.43v112.465h225.48v-17.090c27.616 17.422 63.841 11.884 84.989-12.995s20.782-61.522-0.86-85.973c-21.642-24.45-57.97-29.263-85.232-11.292-3.568-26.694-16.612-51.217-36.753-69.096 57.702-2.94 102.174-25.36 114.853-56.416zM637.237 318.353h-0.368c0-7.684 3.065-15.050 8.515-20.466s12.836-8.434 20.52-8.385c15.809 0 28.633 12.798 28.667 28.607s-12.737 28.661-28.545 28.728c-15.808 0.067-28.688-12.675-28.789-28.483zM576.227 825.546c30.447 0 55.13-24.682 55.13-55.13s-24.682-55.13-55.13-55.13h-133.046c-30.447 0-55.13 24.682-55.13 55.13s24.682 55.13 55.13 55.13h133.046zM576.227 752.040c10.149 0 18.377 8.227 18.377 18.377s-8.227 18.377-18.377 18.377h-133.046c-10.149 0-18.377-8.227-18.377-18.377s8.227-18.377 18.377-18.377h133.046zM843.422 790.080h0.184c10.149 0 18.377-8.227 18.377-18.377s-8.227-18.377-18.377-18.377h-150.136c-10.149 0-18.377 8.227-18.377 18.377s8.227 18.377 18.377 18.377h149.953zM316.015 790.080c10.149 0 18.377-8.227 18.377-18.377s-8.227-18.377-18.377-18.377h-150.136c-10.149 0-18.377 8.227-18.377 18.377s8.227 18.377 18.377 18.377h150.136zM424.253 42.889c-10.149 0-18.377 8.227-18.377 18.377s8.227 18.377 18.377 18.377h150.136c10.149 0 18.377-8.227 18.377-18.377s-8.227-18.377-18.377-18.377h-150.136z" />
<glyph unicode="&#xe926;" glyph-name="dogs" d="M435.758 503.621c45.194 0 76.592 49.076 76.592 125.958 0 97.271-20.68 174.41-50.217 174.41-47.080 0-107.933-85.33-107.933-161.245 0-79.063 37.072-139.123 81.558-139.123zM436.215 457.746c-73.189 0-127.89 81.188-127.89 182.239 0 98.175 84.12 206.238 159.122 206.238 62.568 0 90.777-96.397 90.777-220.52 0-98.794-48.3-167.957-122.010-167.957zM648.27 503.629c36.441 0 67.847 59.223 67.847 137.429 0 76.311-48.12 159.29-85.94 159.29-17.234 0-33.686-65.178-33.686-159.29 0-90.914 19.741-137.429 51.779-137.429zM646.314 457.754c-63.385 0-95.698 67.241-95.698 182.231 0 122.239 24.008 206.238 73.2 206.238 67.767 0 138.176-107.225 138.176-206.238 0-100.927-48.82-182.231-115.678-182.231zM840.697 480.977c-2.72 34.897-11.864 46.158-25.074 46.158-7.696 0-17.317-4.857-27.414-13.326-6.826-5.725-12.921-12.295-16.741-17.136-56.346-60.22-58.483-93.213-10.592-171.282 9.061-14.773 18.006-21.422 26.701-21.422 6.344 0 12.566 3.425 18.858 10.972 23.119 27.706 39.158 103.175 34.26 166.035zM886.228 493.005c6.851-78.118-15.326-170.831-51.329-209.164-13.489-14.374-29.296-22.105-46.478-22.105-22.564 0-42.553 13.2-59.252 37.39-68.599 99.353-64.665 153.329 16.464 230.268 5.14 5.901 14.363 14.733 24.871 22.564 17.568 13.091 35.316 21.052 53.088 21.052 34.122 0 57.9-26.016 62.636-80.005zM274.885 509.616c-10.904 11.943-20.858 17.518-29.53 17.518-10.795 0-19.86-8.247-27.362-23.782-5.369-11.118-8.796-23.475-10.35-32.282-7.488-64.372 1.843-116.92 24.302-143.845 9.702-11.621 21.127-17.504 33.385-17.504 13.551 0 27.864 7.368 41.39 21.918 41.816 44.986 31.596 108.55-31.834 177.977zM337.559 297.782c-22.141-21.96-47.368-33.935-72.952-33.935-24.228 0-46.585 10.615-64.273 30.15-34.808 38.478-47.977 106.863-37.589 188.985 0.88 4.668 2.296 10.648 4.318 17.369 3.021 10.045 6.839 19.833 11.59 28.906 14.065 26.856 34.21 43.753 61.388 43.753 20.095 0 39.764-10.158 58.56-29.14 88.826-89.649 104.728-180.844 38.956-246.088zM520.935 417.85c-18.711 0-36.268-8.059-52.376-22.183-10.958-9.608-19.486-20.345-25.089-29.363l-1.578-2.086c-98.432-108.022-119.154-171.534-100.112-221.225 3.913-10.204 11.412-15.246 22.827-15.246 16.147 0 39.28 9.639 78.776 32.143 61.356 34.934 123.57 31.137 180.263-26.87 14.641-14.987 22.509-20.027 33.161-20.027 6.398 0 13.673 2.292 22.401 7.394 17.787 10.39 28.024 23.309 31.317 38.755 8.049 37.696-18.103 85.52-104.872 202.423-28.103 37.892-56.652 56.287-84.719 56.287zM443.46 431.482c22.628 20.176 48.482 32.243 77.266 32.243 41.752 0 80.944-25.679 116.567-74.52 100.255-137.351 129.763-192.223 118.335-246.648-5.451-25.998-22.053-47.301-48.389-62.945-13.92-8.275-27.092-12.494-40.129-12.494-22.574 0-37.041 9.425-58.304 31.557-50.317 52.353-101.541 55.532-155.938 24.037-47.4-27.463-75.645-39.43-100.563-39.43-25.262 0-45.052 13.532-53.891 36.969-25.195 66.857 0.599 147.649 112.906 273.262 7.485 11.994 18.223 25.559 32.141 37.969z" />
<glyph unicode="&#xe927;" glyph-name="nodogs" d="M413.459 457.739c-73.182 0-127.886 81.192-127.886 182.226 0 98.19 84.105 206.256 159.107 206.256 47.946 0 75.662-56.684 86.016-138.968 7.623 84.696 30.834 138.968 70.36 138.968 42.28 0 85.584-41.756 112.185-97.189-10.354-10.422-21.481-21.618-33.496-33.701-17.021 47.627-46.945 85.015-72.317 85.015-17.249 0-33.701-65.172-33.701-159.289 0-11.127 0.319-21.55 0.887-31.357-13.54-13.608-27.42-27.557-41.461-41.665-0.592 3.664-1.206 7.35-1.684 11.173-1.001-5.621-2.162-11.059-3.482-16.361-34.179-34.315-69.382-69.632-104.152-104.494-3.413-0.319-6.827-0.614-10.377-0.614zM439.378 803.988c-47.081 0-107.93-85.333-107.93-161.246 0-79.076 37.069-139.127 81.556-139.127 45.193 0 76.595 49.084 76.595 125.952 0 97.28-20.685 174.421-50.222 174.421zM580.644 427.333c11.605-10.559 22.938-23.12 33.883-38.138 100.284-137.33 129.775-192.216 118.329-246.647-5.439-25.987-22.027-47.309-48.378-62.942-13.904-8.283-27.102-12.493-40.118-12.493-22.574 0-37.046 9.421-58.322 31.562-50.313 52.338-101.535 55.524-155.921 24.030-47.4-27.466-75.639-39.413-100.58-39.413-23.939 0-42.667 12.47-52.11 33.701l37.797 38.684c1.024-4.324 2.23-8.556 3.8-12.698 3.914-10.172 11.401-15.246 22.824-15.246 16.156 0 39.276 9.648 78.78 32.154 61.372 34.93 123.563 31.13 180.27-26.874 14.632-14.973 22.505-20.025 33.155-20.025 6.394 0 13.676 2.298 22.391 7.418 17.795 10.377 28.035 23.279 31.334 38.753 8.055 37.683-18.113 85.515-104.88 202.388-10.741 14.495-21.572 26.101-32.381 34.953l30.128 30.834zM230.65 265.084c-19.866 2.776-38.184 12.47-53.066 28.922-34.816 38.48-47.991 106.86-37.592 188.962 0.865 4.688 2.298 10.672 4.324 17.385 3.026 10.058 6.827 19.82 11.583 28.9 14.063 26.852 34.202 43.759 61.394 43.759 20.093 0 39.754-10.149 58.55-29.15 52.406-52.884 79.212-106.268 79.053-154.601-45.693-45.739-88.451-88.474-124.245-124.177zM184.889 471.067c-7.487-64.353 1.843-116.918 24.303-143.838 9.694-11.628 21.117-17.499 33.382-17.499 13.54 0 27.853 7.35 41.392 21.914 41.802 44.988 31.585 108.544-31.835 177.971-10.9 11.947-20.867 17.522-29.537 17.522-10.786 0-19.866-8.238-27.352-23.78-5.37-11.127-8.806-23.484-10.354-32.29zM800.848 573.003c34.111 0 57.89-26.010 62.623-80.009 6.849-78.097-15.337-170.826-51.337-209.146-13.471-14.382-29.286-22.118-46.467-22.118-22.551 0-42.553 13.198-59.255 37.387-52.816 76.504-62.464 126.134-27.125 180.019-16.27-13.608-35.135-21.39-55.728-21.39-4.233 0-8.306 0.364-12.265 0.956l122.675 125.542c-5.006-25.828-13.54-49.038-24.758-68.403 4.301 4.46 8.829 8.966 13.676 13.562 5.143 5.894 14.359 14.723 24.849 22.551 17.567 13.084 35.339 21.049 53.111 21.049zM783.69 314.932c23.12 27.716 39.162 103.174 34.27 166.047-2.731 34.907-11.878 46.148-25.099 46.148-7.691 0-17.294-4.847-27.398-13.312-6.849-5.734-12.925-12.311-16.748-17.158-56.366-60.211-58.482-93.184-10.581-171.281 9.057-14.746 18-21.413 26.692-21.413 6.326 0 12.561 3.436 18.864 10.968zM56.457 44.203c541.943 543.638 821.146 823.835 837.609 840.59 24.694 25.134 70.205 2.378 38.912-38.571-534.015-536.447-814.667-817.099-841.956-841.956-40.933-37.285-63.688 8.226-34.566 39.936z" />
<glyph unicode="&#xe928;" glyph-name="products" d="M373.107 642.854v162.391c0 0.658-0.39 1.439-1.474 2.523-0.083 0.083-0.169 0.166-0.256 0.247h-142.028c-4.867-1.883-6.255-4.138-6.255-9.082v-156.079h150.013zM373.107 609.822h-149.502c0.043-0.337 0.089-0.691 0.138-1.066 2.565-19.549 0.455-30.245-15.817-38.763-14.769-7.731-89.526-51.675-105.801-62.525-10.538-7.025-17.893-29.090-17.893-49.377v-416.585c0-41.745 10.197-78.162 21.355-78.162h372.402c17.625 0 27.667 16.068 27.667 65.539v434.939c0 32.94-2.885 43.334-15.797 49.446-9.668 4.576-21.68 11.163-41.975 22.766-0.87 0.497-0.87 0.497-1.739 0.995-33.66 19.262-40.79 23.22-46.876 25.654-11.172 4.469-18.855 11.825-22.871 21.262-2.728 6.412-3.291 11.337-3.291 19.058v6.82zM360.483 841.048v51.444c-22.509 17.484-69.749 27.611-140.969 28.691 3.564-9.169 10.325-22.309 20.217-39.041l2.299-3.888v-37.205h118.453zM394.99 831.126c6.806-6.806 11.149-15.493 11.149-25.88v-202.244c0-6.623 0.445-7.669 5.398-9.65 8.351-3.341 14.213-6.595 51.015-27.654 0.864-0.494 0.864-0.494 1.727-0.988 19.521-11.159 31.095-17.507 39.712-21.586 29.085-13.766 34.698-33.99 34.698-79.303v-434.939c0-65.406-20.728-98.571-60.699-98.571h-372.402c-40.599 0-54.388 49.244-54.388 111.195v416.585c0 30.208 10.679 62.246 32.602 76.861 17.11 11.407 91.55 55.178 108.321 64.051-0.262 0.178-0.585 1.289-1.132 5.455-0.662 5.047-0.929 7.846-0.929 11.43v183.045c0 15.571 6.746 27.93 18.936 35.635v34.68c-11.94 20.513-19.571 36.277-22.992 47.85-5.799 19.618-0.598 37.213 20.573 37.213 92.466 0 152.798-13.407 182.1-42.709l4.837-4.837v-74.231c0.496-0.453 0.988-0.922 1.474-1.408zM956.239 766.95l-74.84-679.067v-141.977c0-5.503-4.402-9.905-9.905-9.905h-216.758c-5.503 0-9.905 4.402-9.905 9.905v140.876l-75.941 680.168c0 3.302 0 5.503 2.201 7.704s4.402 3.302 7.704 3.302h367.539c3.302 0 5.503-1.101 7.704-3.302 1.101-2.201 2.201-5.503 2.201-7.704zM923.799 746.616h-322.47l4.402-37.42h253.655c5.503 0 9.905-12.822 9.905-18.325s-4.402-14.115-9.905-14.115h-251.454l67.136-578.968h174.99l73.74 648.829zM847.252-32.962v95.201h-169.376v-95.201h169.376zM637.156 557.667c13.424-1.707 56.063-4.155 62.582-24.337 1.537-13.125-6.856-16.323-10.43-24.337 3.094-1.54 6.22-3.053 6.954-6.954 11.091-2.98 10.754 5.472 17.384 6.954 2.813 16.72-15.256 12.558-10.43 31.291 4.638 4.961 19.699 4.961 24.337 0-0.435-14.988-8.247-26.747 6.954-31.291 10.406 0.024 14.613 6.248 17.384 13.907-41.468 14.244-15.941 54.436 3.477 73.012 23.635-9.648 55.886-59.96 10.43-69.536 0.664-10.924 6.46-16.72 17.384-17.384 18.768 3.442 0.191 22.797 10.43 34.768 12.023 2.754 14.679-3.866 20.861-6.954 3.658-15.249-11.758-11.421-10.43-24.337 3.021-5.090 5.205-11.018 13.907-10.43 2.816 0.661 3.466 3.487 6.954 3.477-25.749 41.182 24.967 46.38 52.152 55.628-8.278-26.483-43.953-53.991-38.245-97.35-46.491-21.834-118.812-23.43-163.408 3.477 4.37 47.249-22.081 63.681-38.245 90.396zM689.307 463.794c36.471-14.484 102.537-14.081 139.071 0-21.313 25.718-117.762 25.718-139.071 0zM793.61 526.376h13.907c0.98 9.092-1.269 14.954-10.43 13.907-1.092-4.701-4.951-6.641-3.477-13.907zM710.168 526.376c7.924-0.97 13.069 0.838 13.907 6.954-4.961 0.831-5.865 5.723-10.43 6.954-1.092-4.701-4.947-6.641-3.477-13.907zM751.889 554.19h13.907c0.98 9.092-1.269 14.954-10.43 13.907-1.092-4.701-4.947-6.641-3.477-13.907zM113.778 401.335c20.373-2.591 85.086-6.306 94.98-36.937 2.332-19.919-10.406-24.774-15.83-36.937 4.696-2.338 9.44-4.633 10.553-10.553 16.833-4.522 16.321 8.305 26.383 10.553 4.269 25.375-23.154 19.059-15.83 47.49 7.039 7.53 29.898 7.53 36.937 0-0.66-22.748-12.516-40.593 10.553-47.49 15.793 0.037 22.178 9.482 26.383 21.107-62.935 21.618-24.193 82.617 5.277 110.81 35.871-14.643 84.817-91.001 15.83-105.533 1.008-16.579 9.804-25.375 26.383-26.383 28.483 5.224 0.29 34.599 15.83 52.767 18.247 4.179 22.278-5.868 31.66-10.553 5.551-23.143-17.846-17.334-15.83-36.937 4.585-7.725 7.899-16.722 21.107-15.83 4.274 1.003 5.261 5.292 10.553 5.277-39.079 62.502 37.892 70.391 79.15 84.426-12.564-40.192-66.707-81.941-58.043-147.746-70.559-33.137-180.319-35.559-248.003 5.277 6.633 71.71-33.512 96.647-58.043 137.193zM351.227 353.845h21.107c1.488 13.798-1.926 22.695-15.83 21.107-1.657-7.134-7.514-10.078-5.277-21.107zM224.587 353.845c12.025-1.472 19.835 1.272 21.107 10.553-7.53 1.261-8.902 8.685-15.83 10.553-1.657-7.134-7.509-10.078-5.277-21.107zM287.907 396.058h21.107c1.488 13.798-1.926 22.695-15.83 21.107-1.657-7.134-7.509-10.078-5.277-21.107zM192.928 258.865c55.352-21.983 155.619-21.37 211.066 0-32.346 39.031-178.725 39.031-211.066 0z" />
<glyph unicode="&#xe929;" glyph-name="rainshower" d="M222.369 41.078v-78.808c0-14.448-11.821-26.269-26.269-26.269s-26.269 11.821-26.269 26.269v78.808c0 14.448 11.821 26.269 26.269 26.269s26.269-11.821 26.269-26.269zM196.1 277.502c-14.448 0-26.269-11.821-26.269-26.269v-78.808c0-14.448 11.821-26.269 26.269-26.269s26.269 11.821 26.269 26.269v78.808c0 14.448-11.821 26.269-26.269 26.269zM196.1 487.657c-14.448 0-26.269-11.821-26.269-26.269v-78.808c0-14.448 11.821-26.269 26.269-26.269s26.269 11.821 26.269 26.269v78.808c0 14.448-11.821 26.269-26.269 26.269zM327.447 67.347c-14.448 0-26.269-11.821-26.269-26.269v-78.808c0-14.448 11.821-26.269 26.269-26.269s26.269 11.821 26.269 26.269v78.808c0 14.448-11.821 26.269-26.269 26.269zM327.447 277.502c-14.448 0-26.269-11.821-26.269-26.269v-78.808c0-14.448 11.821-26.269 26.269-26.269s26.269 11.821 26.269 26.269v78.808c0 14.448-11.821 26.269-26.269 26.269zM327.447 487.657c-14.448 0-26.269-11.821-26.269-26.269v-78.808c0-14.448 11.821-26.269 26.269-26.269s26.269 11.821 26.269 26.269v78.808c0 14.448-11.821 26.269-26.269 26.269zM458.794 67.347c-14.448 0-26.269-11.821-26.269-26.269v-78.808c0-14.448 11.821-26.269 26.269-26.269s26.269 11.821 26.269 26.269v78.808c0 14.448-11.821 26.269-26.269 26.269zM458.794 277.502c-14.448 0-26.269-11.821-26.269-26.269v-78.808c0-14.448 11.821-26.269 26.269-26.269s26.269 11.821 26.269 26.269v78.808c0 14.448-11.821 26.269-26.269 26.269zM458.794 487.657c-14.448 0-26.269-11.821-26.269-26.269v-78.808c0-14.448 11.821-26.269 26.269-26.269s26.269 11.821 26.269 26.269v78.808c0 14.448-11.821 26.269-26.269 26.269zM590.14 67.347c-14.448 0-26.269-11.821-26.269-26.269v-78.808c0-14.448 11.821-26.269 26.269-26.269s26.269 11.821 26.269 26.269v78.808c0 14.448-11.821 26.269-26.269 26.269zM590.14 277.502c-14.448 0-26.269-11.821-26.269-26.269v-78.808c0-14.448 11.821-26.269 26.269-26.269s26.269 11.821 26.269 26.269v78.808c0 14.448-11.821 26.269-26.269 26.269zM590.14 487.657c-14.448 0-26.269-11.821-26.269-26.269v-78.808c0-14.448 11.821-26.269 26.269-26.269s26.269 11.821 26.269 26.269v78.808c0 14.448-11.821 26.269-26.269 26.269zM721.487 67.347c-14.448 0-26.269-11.821-26.269-26.269v-78.808c0-14.448 11.821-26.269 26.269-26.269s26.269 11.821 26.269 26.269v78.808c0 14.448-11.821 26.269-26.269 26.269zM721.487 277.502c-14.448 0-26.269-11.821-26.269-26.269v-78.808c0-14.448 11.821-26.269 26.269-26.269s26.269 11.821 26.269 26.269v78.808c0 14.448-11.821 26.269-26.269 26.269zM721.487 487.657c-14.448 0-26.269-11.821-26.269-26.269v-78.808c0-14.448 11.821-26.269 26.269-26.269s26.269 11.821 26.269 26.269v78.808c0 14.448-11.821 26.269-26.269 26.269zM852.834 67.347c-14.448 0-26.269-11.821-26.269-26.269v-78.808c0-14.448 11.821-26.269 26.269-26.269s26.269 11.821 26.269 26.269v78.808c0 14.448-11.821 26.269-26.269 26.269zM852.834 277.502c-14.448 0-26.269-11.821-26.269-26.269v-78.808c0-14.448 11.821-26.269 26.269-26.269s26.269 11.821 26.269 26.269v78.808c0 14.448-11.821 26.269-26.269 26.269zM852.834 487.657c-14.448 0-26.269-11.821-26.269-26.269v-78.808c0-14.448 11.821-26.269 26.269-26.269s26.269 11.821 26.269 26.269v78.808c0 14.448-11.821 26.269-26.269 26.269zM957.912 724.081v-131.347c0-14.448-11.821-26.269-26.269-26.269h-814.351c-14.448 0-26.269 11.821-26.269 26.269v131.347c0 14.448 11.821 26.269 26.269 26.269l338.505 1.617v181.762c0 14.448 11.821 26.269 26.269 26.269h108.074c14.448 0 26.269-11.821 26.269-26.269v-181.762l315.233-1.617c14.448 0 26.269-11.821 26.269-26.269zM498.096 751.968h76.015v165.733h-76.015v-165.733zM915.613 708.052h-782.292v-99.288h782.292v99.288z" />
<glyph unicode="&#xe92a;" glyph-name="steamshower" d="M517.293 507.67c13.979-4.813 21.478-20.188 16.664-34.167l-26.254-76.247c-4.813-13.979-20.188-21.478-34.167-16.664s-21.478 20.188-16.664 34.167l26.254 76.247c4.813 13.979 20.188 21.478 34.167 16.664zM651.523 70.401c14.784 0 26.88-12.096 26.88-26.88v-80.641c0-14.784-12.096-26.88-26.88-26.88s-26.88 12.096-26.88 26.88v80.641c0 14.784 12.096 26.88 26.88 26.88zM651.523 285.444c14.784 0 26.88-12.096 26.88-26.88v-80.641c0-14.784-12.096-26.88-26.88-26.88s-26.88 12.096-26.88 26.88v80.641c0 14.784 12.096 26.88 26.88 26.88zM651.523 500.486c14.784 0 26.88-12.096 26.88-26.88v-80.641c0-14.784-12.096-26.88-26.88-26.88s-26.88 12.096-26.88 26.88v80.641c0 14.784 12.096 26.88 26.88 26.88zM939.255 104.451c13.609 5.777 29.47-0.632 35.246-14.24l31.509-74.23c5.777-13.609-0.632-29.47-14.24-35.246s-29.47 0.632-35.246 14.24l-31.509 74.23c-5.777 13.609 0.632 29.47 14.24 35.246zM859.345 312.581c13.609 5.777 29.47-0.632 35.246-14.24l31.509-74.23c5.777-13.609-0.632-29.47-14.24-35.246s-29.47 0.632-35.246 14.24l-31.509 74.23c-5.777 13.609 0.632 29.47 14.24 35.246zM771.207 500.346c13.609 5.777 29.47-0.632 35.246-14.24l31.509-74.23c5.777-13.609-0.632-29.47-14.24-35.246s-29.47 0.632-35.246 14.24l-31.509 74.23c-5.777 13.609 0.632 29.47 14.24 35.246zM891.813 742.409v-134.401c0-14.784-12.096-26.88-26.88-26.88h-428.452c-14.784 0-26.88 12.096-26.88 26.88v134.401c0 14.784 12.096 26.88 26.88 26.88l132.052 1.536v162.294c0 14.784 12.096 26.88 26.88 26.88h110.588c14.784 0 26.88-12.096 26.88-26.88v-162.294l132.052-1.536c14.784 0 26.88-12.096 26.88-26.88zM612.053 765.705h77.307v150.774h-77.307v-150.774zM848.292 725.769h-395.171v-101.121h395.171v101.121zM481.922 259.124c42.85-29.367 54.671-89.646 25.119-132.923-5.91-10.819-14.776-20.093-25.119-27.821-15.433-14.469-43.877 8.287-27.631 24.73s13.298 10.819 17.731 18.547c17.731 30.912 21.721 62.565-7.831 82.658-8.866 6.182-24.898 12.118-35.241 13.664-7.388 0-13.298 7.728-13.298 15.456 0 64.916-31.029 123.649-82.745 159.199s-116.729 34.497-172.878 8.222c-7.388-4.637-16.253-1.546-19.209 6.182-4.433 10.819-17.51 29.925-26.375 36.108-29.552 18.547-45.213 10.819-64.422-20.093-4.433-7.728-7.388-15.456-8.866-24.73-1.478-7.728-21.721-13.911-29.109-12.365s-13.298 10.819-11.821 18.547c1.478 12.365 5.91 24.73 13.298 35.549 28.074 44.823 85.7 58.733 128.55 29.367 8.866-6.182 17.731-13.911 23.641-23.184 62.059 23.184 132.983 15.456 190.609-23.184 56.148-37.095 91.61-102.011 96.043-171.564 10.343-1.546 20.686-6.182 29.552-12.365zM386.844 157.867c25.6-2.844 17.067-34.133 2.844-34.133s-177.147 22.11-334.687-181.987c-4.544-6.138-16.478-7.673-24.052-3.069s-10.604 13.811-6.059 21.484c128.709 277.35 26.309 379.75 17.776 391.128s19.911 34.133 34.872 17.067c14.961-17.067 81.75-108.089 35.581-265.48l116.64 171.872c4.544 7.673 19.019 17.999 32.585 10.293s11.933-25.189 7.389-32.862l-120.999-167.717c115.799 87.628 212.51 76.25 238.11 73.406z" />
<glyph unicode="&#xe92b;" glyph-name="wirlpool" d="M995.382 517.317c15.72 0 28.416-7.554 28.618-23.246 0-15.491-12.697-23.045-28.215-23.246-11.286-135.594-101.171-259.501-223.906-305.168v-35.407c0-15.692-7.778-28.366-23.498-28.366s-23.296 12.674-23.296 28.366v19.716c-20.557-4.024-51.958-6.035-73.724-6.035h-278.925c-21.564 0-53.167 2.213-73.724 6.035v-19.716c0-15.692-7.577-28.366-23.296-28.366s-23.296 12.674-23.296 28.366v35.407c-122.936 45.869-212.821 169.574-223.906 305.168-15.72 0.201-28.215 7.755-28.215 23.246 0 15.692 12.697 23.246 28.416 23.246h966.966zM661.602 190.422c149.539 0 273.080 134.75 287.188 280.202h-873.981c14.511-145.653 137.85-280.202 287.389-280.202h299.405zM386.844 602.738c-46.5 0-84.196 37.696-84.196 84.196s37.696 84.196 84.196 84.196c46.5 0 84.196-37.696 84.196-84.196s-37.696-84.196-84.196-84.196zM386.844 634.596c28.905 0 52.338 23.432 52.338 52.338s-23.432 52.338-52.338 52.338c-28.905 0-52.338-23.432-52.338-52.338s23.432-52.338 52.338-52.338zM796.444 557.227c-46.5 0-84.196 37.696-84.196 84.196s37.696 84.196 84.196 84.196c46.5 0 84.196-37.696 84.196-84.196s-37.696-84.196-84.196-84.196zM796.444 589.084c28.905 0 52.338 23.432 52.338 52.338s-23.432 52.338-52.338 52.338c-28.905 0-52.338-23.432-52.338-52.338s23.432-52.338 52.338-52.338zM591.644 536.747c-32.676 0-59.164 26.489-59.164 59.164s26.489 59.164 59.164 59.164c32.676 0 59.164-26.489 59.164-59.164s-26.489-59.164-59.164-59.164zM591.644 564.053c17.595 0 31.858 14.263 31.858 31.858s-14.263 31.858-31.858 31.858c-17.595 0-31.858-14.263-31.858-31.858s14.263-31.858 31.858-31.858zM250.311 743.822c-18.851 0-34.133 15.282-34.133 34.133s15.282 34.133 34.133 34.133c18.851 0 34.133-15.282 34.133-34.133s-15.282-34.133-34.133-34.133zM250.311 766.578c6.284 0 11.378 5.094 11.378 11.378s-5.094 11.378-11.378 11.378c-6.284 0-11.378-5.094-11.378-11.378s5.094-11.378 11.378-11.378zM204.8 536.747c-32.676 0-59.164 26.489-59.164 59.164s26.489 59.164 59.164 59.164c32.676 0 59.164-26.489 59.164-59.164s-26.489-59.164-59.164-59.164zM204.8 564.053c17.595 0 31.858 14.263 31.858 31.858s-14.263 31.858-31.858 31.858c-17.595 0-31.858-14.263-31.858-31.858s14.263-31.858 31.858-31.858z" />
<glyph unicode="&#xe92c;" glyph-name="shower" d="M498.646 70.401c-14.784 0-26.88-12.096-26.88-26.88v-80.641c0-14.784 12.096-26.88 26.88-26.88s26.88 12.096 26.88 26.88v80.641c0 14.784-12.096 26.88-26.88 26.88zM498.646 285.444c-14.784 0-26.88-12.096-26.88-26.88v-80.641c0-14.784 12.096-26.88 26.88-26.88s26.88 12.096 26.88 26.88v80.641c0 14.784-12.096 26.88-26.88 26.88zM498.646 500.486c-14.784 0-26.88-12.096-26.88-26.88v-80.641c0-14.784 12.096-26.88 26.88-26.88s26.88 12.096 26.88 26.88v80.641c0 14.784-12.096 26.88-26.88 26.88zM786.378 104.451c-13.609-5.777-20.017-21.638-14.24-35.246l31.509-74.23c5.777-13.609 21.638-20.017 35.246-14.24s20.017 21.638 14.24 35.246l-31.509 74.23c-5.777 13.609-21.638 20.017-35.246 14.24zM706.469 312.581c-13.609-5.777-20.017-21.638-14.24-35.246l31.509-74.23c5.777-13.609 21.638-20.017 35.246-14.24s20.017 21.638 14.24 35.246l-31.509 74.23c-5.777 13.609-21.638 20.017-35.246 14.24zM618.331 500.346c-13.609-5.777-20.017-21.638-14.24-35.246l31.509-74.23c5.777-13.609 21.638-20.017 35.246-14.24s20.017 21.638 14.24 35.246l-31.509 74.23c-5.777 13.609-21.638 20.017-35.246 14.24zM222.936 101.614c-13.893 5.056-29.396-2.173-34.453-16.066l-27.581-75.778c-5.056-13.893 2.173-29.396 16.066-34.453s29.396 2.173 34.453 16.066l27.581 75.778c5.056 13.893-2.173 29.396-16.066 34.453zM306.438 308.329c-13.893 5.056-29.396-2.173-34.453-16.066l-27.581-75.778c-5.056-13.893 2.173-29.396 16.066-34.453s29.396 2.173 34.453 16.066l27.581 75.778c5.056 13.893-2.173 29.396-16.066 34.453zM370.034 505.762c-13.893 5.056-29.396-2.173-34.453-16.066l-27.581-75.778c-5.056-13.893 2.173-29.396 16.066-34.453s29.396 2.173 34.453 16.066l27.581 75.778c5.056 13.893-2.173 29.396-16.066 34.453zM738.936 742.409v-134.401c0-14.784-12.096-26.88-26.88-26.88h-428.452c-14.784 0-26.88 12.096-26.88 26.88v134.401c0 14.784 12.096 26.88 26.88 26.88l132.052 1.536v162.294c0 14.784 12.096 26.88 26.88 26.88h110.588c14.784 0 26.88-12.096 26.88-26.88v-162.294l132.052-1.536c14.784 0 26.88-12.096 26.88-26.88zM459.176 765.705h77.307v150.774h-77.307v-150.774zM695.415 725.769h-395.171v-101.121h395.171v101.121z" />
<glyph unicode="&#xe92d;" glyph-name="ticket" horiz-adv-x="1189" d="M33.819 453.002h58.39v-126.882h-58.39v-57.305h58.39v-130.967h-58.39l-2.229-49.118h867.669l-2.23 49.118h-54.305v126.882h52.068v57.305h-52.068v130.967h54.305l2.23 42.099h-867.669l2.229-42.099zM-1.148 420.256v107.579h933.16v-107.579h-56.526v-65.489h56.526v-122.781h-56.526v-61.391h56.526v-114.595h-933.16v114.595h60.627v65.489h-60.627v122.781h60.627v61.391h-60.627zM213.55 212.235h-28.921v112.317h-37.031v24.070h102.982v-24.070h-37.031v-112.317zM271.573 212.235v136.387h28.921v-136.387h-28.921zM392.75 326.504c-10.885 0-19.311-4.091-25.279-12.272s-8.952-19.575-8.952-34.185c0-30.405 11.41-45.615 34.231-45.615 9.579 0 21.178 2.392 34.797 7.178v-24.254c-11.197-4.667-23.692-6.993-37.505-6.993-19.837 0-35.011 6.014-45.523 18.056s-15.761 29.308-15.761 51.817c0 14.185 2.576 26.6 7.743 37.264s12.573 18.841 22.249 24.529c9.676 5.692 20.999 8.538 34.001 8.538 13.252 0 26.554-3.208 39.923-9.61l-9.334-23.504c-5.101 2.426-10.227 4.535-15.394 6.346s-10.227 2.708-15.21 2.708zM566.259 212.235h-32.838l-35.73 57.459-12.226-8.768v-48.691h-28.921v136.387h28.921v-62.402l11.385 16.048 36.939 46.365h32.088l-47.574-60.351 47.947-76.024zM661.973 212.235h-78.545v136.387h78.545v-23.691h-49.624v-29.946h46.181v-23.692h-46.181v-35.164h49.624v-23.886zM743.043 212.235h-28.921v112.317h-37.031v24.070h102.982v-24.070h-37.031v-112.317zM523.752 557.617l-54.701-1.678 472.573 284.061 70.209-121.605-55.327-31.94 19.403-33.605 55.327 31.94 72.276-125.183-55.327-31.94 21.806-37.765 55.327 31.94 64.829-112.284-221.332-141.675 1.082 33.939 180.671 118.334-35.848 62.104-55.327-31.94-50.787 87.956 55.327 31.94-43.295 74.994-55.327-31.94-48.384 83.796 55.327 31.94-41.234 71.418-407.264-242.804z" />
<glyph unicode="&#xe92e;" glyph-name="newspaper" d="M820.174 911.299c12.195 0.955 23.985-9.991 23.949-22.234v-133.405c23.891 0.1 88.292 0.389 112.499 0 11.515-0.181 21.867-10.708 21.867-22.234v-678.14c-0.001-11.641-10.583-22.233-22.214-22.234-98.191 0-202.308 44.469-299.886 44.469-47.939 0-97.484-19.971-125.299-67.050-7.832-13.171-30.348-13.171-38.18 0-27.815 47.079-77.361 67.050-125.299 67.050-97.577 0-201.694-44.469-299.886-44.469-11.631 0.001-22.213 10.593-22.214 22.234v402.3c-0.166 11.747 44.593 11.747 44.428 0v-377.634c80.022 6.23 176.623 42.036 277.672 42.036 42.313 0 86.612-13.989 122.176-43.426v572.875c-10.739 30.977-28.29 50.068-52.063 62.881-24.499 13.204-56.328 19.107-92.326 19.107-78.102 0-166.098-18.289-255.458-21.192v-256.734c0.166-11.747-44.593-11.747-44.428 0v277.926c0.001 11.641 10.583 22.233 22.214 22.234 89.914 0 185.645 22.234 277.672 22.234 40.807 0 80.004-6.614 113.498-24.666 19.252-10.376 36.298-24.66 49.981-43.079 27.965 61.995 70.447 107.443 123.217 138.268 65.697 38.377 100.377 55.569 188.080 62.881zM799.695 221v642.357c-73.552-8.126-93.854-23.252-145.041-53.153-56.185-32.821-97.515-81.13-120.44-157.376 0-183.378 0-366.874 0-550.294 39.697 46.419 84.688 76.048 132.241 93.453 57.877 21.184 73.161 24.324 133.24 25.013zM844.123 711.193v-511.385c-0.001-11.641-10.583-22.233-22.214-22.234-66.034 0-83.809-2.99-140.182-23.623-23.798-8.711-46.396-20.671-68.030-36.826 14.228 3.201 28.494 4.864 42.692 4.864 101.049 0 197.649-35.806 277.672-42.036v631.24c-13.975 0.033-73.989 0.022-89.939 0zM162.74 482.089c-11.149-1.906-21.732 5.587-23.638 16.736s5.587 21.732 16.736 23.638c90.012 15.388 146.816 23.048 172.184 23.048 47.848 0 93.394-19.737 106.173-55.151 3.839-10.639-1.674-22.376-12.313-26.216s-22.376 1.674-26.216 12.313c-5.509 15.268-35.106 28.094-67.644 28.094-22.128 0-77.813-7.51-165.282-22.463zM164.438 368.676c-10.947-2.844-22.127 3.726-24.971 14.673s3.726 22.127 14.673 24.971c59.996 15.585 102.387 23.413 128.371 23.413 11.311 0 20.48-9.169 20.48-20.48s-9.169-20.48-20.48-20.48c-21.512 0-61.269-7.342-118.073-22.098zM162.74 595.867c-11.149-1.906-21.732 5.587-23.638 16.736s5.587 21.732 16.736 23.638c90.012 15.388 146.816 23.048 172.184 23.048 47.848 0 93.394-19.737 106.173-55.151 3.839-10.639-1.674-22.376-12.313-26.216s-22.376 1.674-26.216 12.313c-5.509 15.268-35.106 28.094-67.644 28.094-22.128 0-77.813-7.51-165.282-22.463z" />
<glyph unicode="&#xe92f;" glyph-name="shop" horiz-adv-x="1365" d="M372.122 843.548h959.436c6.801 0.001 13.166-3.348 17.017-8.953s4.696-12.747 2.257-19.096l-163.855-427.049c-3.068-7.975-10.729-13.239-19.274-13.242h-686.98l24.968-107.677h572.625c11.402 0 20.645-9.243 20.645-20.645s-9.243-20.645-20.645-20.645h-589.030c-9.606 0.002-17.942 6.627-20.113 15.984l-155.193 669.274h-284.61c-11.402 0-20.645 9.243-20.645 20.645s9.243 20.645 20.645 20.645h301.013c9.606-0.002 17.942-6.627 20.113-15.984l21.625-93.258zM1153.51 416.5l148.016 385.758h-919.829l89.45-385.758h682.364zM553.835-56.79c-63.471 0.079-114.905 51.513-114.984 114.984-0.003 46.511 28.012 88.445 70.983 106.245s92.432 7.963 125.321-24.926c32.888-32.888 42.726-82.351 24.926-125.321s-59.734-70.986-106.245-70.983zM553.835 131.903c-40.684-0.054-73.649-33.026-73.693-73.71 0.004-40.704 33.005-73.698 73.71-73.693s73.698 33.005 73.693 73.71c-0.004 40.704-33.005 73.698-73.71 73.693zM1142.816 58.194c-0.086-63.474-51.526-114.906-115-114.984-63.508 0.004-114.988 51.492-114.984 115s51.492 114.988 115 114.984c63.508-0.004 114.988-51.492 114.984-115zM954.123 58.194c0.052-40.678 33.015-73.642 73.694-73.693 29.811-0.003 56.688 17.952 68.098 45.493s5.105 59.243-15.975 80.323c-21.080 21.080-52.782 27.385-80.323 15.975s-45.497-38.287-45.493-68.098z" />
<glyph unicode="&#xe930;" glyph-name="closomat" d="M113.095 932.238v-978.489h-45.511v978.489h45.511zM201.517 815.133l24.631-14.519 2.924-10.829 87.008-357.924c27.203-5.999 47.554-30.252 47.554-59.258 0-8.69-1.827-16.953-5.117-24.426l354.255 0.002c26.055-1.032 42.895 1.232 36.553-22.27-4.228-15.669-10.005-31.764-17.331-48.286l-4.581-12.587-4.7-12.703-3.204-8.511-3.264-8.529-3.327-8.533-3.393-8.524c-0.571-1.419-1.145-2.837-1.722-4.254l-3.497-8.485-3.57-8.443c-0.601-1.403-1.206-2.803-1.813-4.201l-3.685-8.354c-37.247-83.181-86.543-154.949-160.939-154.898h-347.022v318.579l60.109-0.002c-3.29 7.473-5.117 15.736-5.117 24.426 0 18.749 8.503 35.512 21.863 46.643-50.269 210.954-79.472 332.65-87.606 365.082-8.848 35.281-0.519 45.55 24.989 30.806zM670.911 302.675h-438.129v-227.556l301.551-0.008c29.293-0.020 56.47 19.826 83.253 60.469l3.149 4.878 3.146 5.070c2.621 4.305 5.239 8.811 7.857 13.518l3.141 5.745 3.14 5.939c0.523 1.006 1.047 2.020 1.57 3.042l3.141 6.23 3.143 6.425c0.524 1.087 1.048 2.182 1.572 3.285l3.146 6.717 3.149 6.913 3.152 7.109 3.156 7.305 1.58 3.726 3.164 7.599 3.17 7.796 3.176 7.994 2.155 5.532 3.392 8.951c1.432 4.407 3.747 10.662 6.947 18.763 4.905 12.422 0.666 20.607-12.72 24.558zM302.952 387.774c-8.378 0-15.17-6.792-15.17-15.17s6.792-15.17 15.17-15.17c8.378 0 15.17 6.792 15.17 15.17s-6.792 15.17-15.17 15.17zM728.178 937.244c138.243 0 250.311-112.068 250.311-250.311s-112.068-250.311-250.311-250.311c-138.243 0-250.311 112.068-250.311 250.311s112.068 250.311 250.311 250.311zM726.626 868.978l-24.833-42.433-9.914-17.277-9.27-16.539-8.627-15.808c-1.384-2.574-2.742-5.118-4.073-7.632l-7.664-14.725-7.022-14.012c-4.468-9.105-8.508-17.74-12.122-25.914l-5.101-11.916c-11.953-28.932-17.911-51.447-17.911-68.047 0-58.839 47.698-106.537 106.537-106.537s106.537 47.698 106.537 106.537c0 17.707-6.779 42.143-20.381 73.919l-5.421 12.261-6.061 12.956c-1.064 2.218-2.154 4.465-3.271 6.741l-7.022 14.012-7.664 14.725-8.306 15.445-8.949 16.173c-1.545 2.756-3.117 5.543-4.716 8.361l-9.914 17.277-24.833 42.433zM726.645 778.153l6.964-12.581 7.696-14.25 7.107-13.549 6.518-12.84 5.928-12.125 5.338-11.402 4.747-10.672c1.484-3.435 2.869-6.747 4.155-9.935l3.563-9.191c5.989-16.164 8.992-28.541 8.992-36.933 0-33.704-27.322-61.026-61.026-61.026s-61.026 27.322-61.026 61.026l0.074 2.387c0.446 7.457 2.902 17.57 7.358 30.231l3.267 8.817 3.859 9.564c0.693 1.656 1.41 3.343 2.152 5.060l4.747 10.672 5.338 11.402 5.928 12.125 6.518 12.84c1.135 2.199 2.295 4.428 3.48 6.686l7.402 13.9 7.99 14.598 2.932 5.196z" />
<glyph unicode="&#xe931;" glyph-name="fireplace" d="M320.715 344.458c6.986 2.298 13.973 2.298 20.959-2.298v0l170.002-96.516 170.002 96.516c4.658 2.298 13.973 4.596 20.959 2.298 9.315-2.298 13.973-6.894 18.63-13.788v0l60.549-105.708c9.315-13.788 4.658-29.874-9.315-39.066v0l-79.179-43.662 79.179-45.96c6.986-4.596 11.644-11.49 13.973-18.384s2.329-13.788-2.329-20.682v0l-62.877-105.708c-4.658-6.894-11.644-11.49-18.63-13.788v0h-6.986c-4.658 0-9.315 2.298-13.973 4.596v0l-170.002 96.516-170.002-96.516c-4.658-2.298-9.315-4.596-13.973-4.596v0h-6.986c-9.315 2.298-13.973 6.894-18.63 13.788v0l-62.877 105.708c-6.986 13.788-2.329 32.172 11.644 39.066v0l79.179 45.96-79.179 43.662c-13.973 6.894-18.63 25.278-11.644 39.066v0l62.877 105.708c4.658 6.894 11.644 11.49 18.63 13.788zM647.58 112.679l-87.159-48.602 125.896-72.903 48.422 72.903-87.159 48.602zM689.645 297.256l-400.384-223.459 48.422-82.623 392.215 223.568-40.252 82.514zM1000.648 846.222c16.346 0 23.352-8.005 23.352-21.76s-11.676-27.51-28.022-27.51v0h-58.379v-618.977c0-13.755-14.011-27.51-28.022-27.51s-22.272 11.463-22.272 27.51v0 624.727h-750.609v-624.727c0-13.755-8.261-27.51-22.272-27.51s-28.022 11.463-28.022 27.51v0 618.977h-58.379c-14.011 0-28.022 13.755-28.022 27.51s11.676 21.76 28.022 21.76v0zM332.84 292.505l-48.422-72.903 92.001-48.602 82.317 48.602-125.896 72.903zM500.239 711.683c11.761 4.575 23.523 2.288 32.932-6.863v0l0.97-0.949c12.811-12.622 133.111-134.186 133.111-262.132 0-98.369-79.978-150.985-155.252-153.273-91.74 0-155.252 57.191-155.252 137.259 0 73.205 37.637 112.095 70.569 148.698 28.228 32.027 54.103 59.479 54.103 109.808 0 13.726 7.057 22.877 18.818 27.452zM529.952 641.806c-15.153-41.153-40.409-69.446-63.139-95.167-32.832-36.009-60.614-66.874-65.665-120.888 0-23.149 12.428-41.153 25.056-56.586-5.051 56.586 25.256 120.888 65.665 162.041 12.628 12.86 27.981 12.86 40.609 0s-6.779-33.437-19.406-46.298c-32.832-36.009-48.185-94.858-38.083-125.723 2.526-5.144 22.132-23.149 54.964-28.293 45.46 7.716 88.195 48.561 88.195 107.719 0 77.163-52.837 154.325-88.195 203.195z" />
<glyph unicode="&#xe932;" glyph-name="part-aircondition" d="M603.022 777.956c11.622 0 21.281-8.829 22.602-20.111l0.154-2.644v-92.16l53.476 52.338c9.102 9.102 22.756 9.102 31.858 0 8.402-8.402 9.048-20.682 1.939-29.681l-1.939-2.177-85.333-84.196v-187.733l131.982 131.982-1.138 120.604c0 12.516 10.24 22.756 22.756 22.756 11.622 0 21.281-8.829 22.602-20.111l0.154-2.644 1.138-75.093 64.853 64.853c9.102 9.102 22.756 9.102 31.858 0 8.402-8.402 9.048-20.682 1.939-29.681l-1.939-2.177-64.853-64.853 75.093-1.138c12.516 0 22.756-10.24 22.756-22.756 0-11.622-8.829-21.281-20.111-22.602l-2.644-0.154-120.604 1.138-131.982-131.982h187.733l85.333 85.333c7.964 9.102 22.756 9.102 31.858 0 8.402-7.352 9.048-20.52 1.939-29.662l-1.939-2.196-53.476-53.476h92.16c12.516 0 22.756-10.24 22.756-22.756 0-11.622-8.829-21.281-20.111-22.602l-2.644-0.154h-92.16l51.2-53.476c9.102-9.102 9.102-22.756 0-31.858-4.551-4.551-10.24-6.827-15.929-6.827-4.741 0-9.481 1.58-13.564 4.741l-2.365 2.086-84.196 85.333h-186.596l131.982-131.982 120.604 1.138c12.516 0 22.756-10.24 22.756-22.756 0-11.622-8.829-21.281-20.111-22.602l-2.644-0.154-75.093-1.138 64.853-64.853c9.102-9.102 9.102-22.756 0-31.858-4.551-4.551-10.24-6.827-15.929-6.827-4.741 0-9.481 1.58-13.564 4.741l-2.365 2.086-64.853 64.853-1.138-75.093c0-12.516-10.24-22.756-22.756-22.756-11.622 0-21.281 8.829-22.602 20.111l-0.154 2.644 1.138 120.604-131.982 131.982v-187.733l87.272-87.287c7.109-8.253 6.463-21.502-1.939-29.904-4.551-4.551-10.24-6.827-15.929-6.827-4.741 0-9.481 1.58-13.564 4.741l-2.365 2.086-53.476 53.476v-92.16c0-12.516-10.24-22.756-22.756-22.756-11.622 0-21.281 8.829-22.602 20.111l-0.154 2.644v94.436l-53.476-53.476c-4.551-4.551-10.24-6.827-15.929-6.827s-11.378 2.276-15.929 6.827c-8.402 8.402-9.048 20.682-1.939 29.681l1.939 2.177 85.333 84.196v186.596l-131.982-131.982 1.138-120.604c0-12.516-10.24-22.756-22.756-22.756-11.622 0-21.281 8.829-22.602 20.111l-0.154 2.644-1.138 75.093-64.853-64.853c-4.551-4.551-10.24-6.827-15.929-6.827s-11.378 2.276-15.929 6.827c-8.402 8.402-9.048 20.682-1.939 29.681l1.939 2.177 64.853 64.853-75.093 1.138c-12.516 0-22.756 10.24-22.756 22.756 0 11.622 8.829 21.281 20.111 22.602l2.644 0.154 119.467-1.138 130.844 131.982h-186.596l-84.196-85.333c-4.551-4.551-10.24-6.827-15.929-6.827s-11.378 2.276-15.929 6.827c-8.402 7.352-9.048 20.52-1.939 29.662l1.939 2.196 53.476 53.476h-92.16c-12.516 0-22.756 10.24-22.756 22.756 0 11.622 8.829 21.281 20.111 22.602l2.644 0.154h93.298l-13.226 13.231c18.046 1.947 35.64 5.4 52.654 10.232l23.15-23.463h187.733l-89.314 89.322c11.622 10.092 22.505 21.012 32.558 32.668l88.614-87.857v186.596l-23.213 22.898c4.794 17.068 8.201 34.715 10.093 52.814l13.12-13.134v92.16c0 12.516 10.24 22.756 22.756 22.756zM250.311 960c138.243 0 250.311-112.068 250.311-250.311s-112.068-250.311-250.311-250.311c-138.243 0-250.311 112.068-250.311 250.311s112.068 250.311 250.311 250.311zM315.749 846.222h-29.349l-149.678-284.262h29.768l149.259 284.262zM330.842 735.536c-11.739 0-22.64-2.865-32.703-8.595-8.625-4.911-16.223-11.517-22.794-19.817l-3.2-4.291 20.963-19.286c4.752 6.429 9.783 11.67 15.094 15.722s11.041 6.079 17.19 6.079c8.665 0 15.443-2.655 20.334-7.966s7.337-12.578 7.337-21.802c0-11.46-6.569-24.038-19.706-37.734-11.823-12.326-27.835-27.256-48.035-44.79l-6.889-5.941v-20.125h116.975v30.606h-59.117c7.267 7.547 14.045 14.814 20.334 21.802s11.809 13.906 16.561 20.754c4.752 6.848 8.455 13.626 11.111 20.334s3.983 13.696 3.983 20.963c0 17.609-5.241 31.026-15.722 40.25s-24.387 13.836-41.717 13.836zM163.555 841.191h-28.929c-6.429-4.752-12.718-8.455-18.867-11.111-5.124-2.213-11.705-4.086-19.74-5.619l-4.996-0.879v-22.64h36.057v-123.264h36.476v163.514z" />
<glyph unicode="&#xe933;" glyph-name="view270" d="M838.577 529.92c8.542-21.356 16.017-44.847 21.356-70.474 54.457-24.559 85.423-53.389 85.423-80.084 0-43.779-90.761-101.439-263.742-129.202-7.474-1.068-14.949-5.339-19.22-11.746s-6.407-13.881-5.339-21.356c1.068-7.474 5.339-14.949 11.746-19.22s13.881-6.407 21.356-5.339c195.404 30.966 312.86 100.371 312.86 185.794 0 77.948-87.558 124.93-164.438 151.625zM470.192 179.688l-43.779-43.779c-11.746-11.746-11.746-29.898 0-40.576 10.678-10.678 29.898-10.678 40.576 0l92.897 92.897c11.746 11.746 11.746 29.898 0 40.576l-92.897 92.897c-11.746 11.746-29.898 11.746-40.576 0-11.746-11.746-11.746-29.898 0-40.576l43.779-43.779h-10.678c-115.32 3.203-222.099 21.356-301.114 51.254-70.474 26.695-112.117 60.864-112.117 90.761 0 26.695 30.966 55.525 85.423 80.084 5.339 25.627 12.813 49.118 21.356 70.474-105.71-36.305-164.438-89.694-164.438-149.489 0-122.795 237.048-193.269 471.96-199.675l9.61-1.068zM399.289 504.889v40.444h-99.089v2.178l29.244 27.533c19.496 17.837 33.107 31.578 40.833 41.222s13.43 19.056 17.111 28.233c3.681 9.178 5.522 19.004 5.522 29.478 0 12.030-3.007 22.711-9.022 32.044s-14.467 16.593-25.356 21.778c-10.889 5.185-23.437 7.778-37.644 7.778-10.785 0-20.533-1.063-29.244-3.189s-16.748-5.159-24.111-9.1c-7.363-3.941-16.644-10.681-27.844-20.222v0l26.133-30.956c9.022 7.467 17.681 13.222 25.978 17.267s16.852 6.067 25.667 6.067c8.4 0 15.115-2.23 20.144-6.689s7.544-11.252 7.544-20.378c0-6.119-1.141-12.030-3.422-17.733s-6.015-11.9-11.2-18.589c-5.185-6.689-16.23-18.693-33.133-36.011v0l-57.089-57.711v-33.444h158.978zM495.111 504.889l86.022 196.933v30.178h-163.178v-40.444h112.156l-85.4-186.667h50.4zM682.089 501.778c27.067 0 47.107 9.541 60.122 28.622s19.522 48.481 19.522 88.2c0 38.37-6.715 67.511-20.144 87.422s-33.263 29.867-59.5 29.867c-26.963 0-46.926-9.515-59.889-28.544s-19.444-48.611-19.444-88.744c0-38.474 6.663-67.563 19.989-87.267s33.107-29.556 59.344-29.556zM682.089 540.511c-11.407 0-19.522 6.041-24.344 18.122s-7.233 32.070-7.233 59.967c0 27.896 2.437 47.937 7.311 60.122s12.963 18.278 24.267 18.278c11.096 0 19.159-6.093 24.189-18.278s7.544-32.226 7.544-60.122c0-27.585-2.489-47.496-7.467-59.733s-13.067-18.356-24.267-18.356zM841.222 628.244c9.644 0 18.615 2.333 26.911 7s14.856 11.174 19.678 19.522c4.822 8.348 7.233 17.344 7.233 26.989 0 9.541-2.411 18.511-7.233 26.911s-11.407 14.985-19.756 19.756c-8.348 4.77-17.293 7.156-26.833 7.156-9.748 0-18.77-2.437-27.067-7.311s-14.83-11.459-19.6-19.756c-4.77-8.296-7.156-17.215-7.156-26.756 0-15.037 5.211-27.715 15.633-38.033s23.152-15.478 38.189-15.478zM841.222 657.8c-6.844 0-12.574 2.333-17.189 7s-6.922 10.319-6.922 16.956c0 6.741 2.359 12.496 7.078 17.267s10.396 7.156 17.033 7.156c6.741 0 12.47-2.437 17.189-7.311s7.078-10.578 7.078-17.111c0-6.43-2.333-12.030-7-16.8s-10.422-7.156-17.267-7.156z" />
</font>
</defs>
</svg>
